FileTracker.PL - Darmowe polskie torrenty

Witaj drogi Towarzyszu!, jeżeli widzisz ten dymek to znaczy że nie jesteś jeszcze zarejestrowany/zalogowany. Kliknij by się zarejestrować . Rejestracja zajmie mniej niż 30 sekund, a dzięki niej zyskasz możliwość pobierania, komentowania oraz dodawania torrentów !
User:  Hasło:     



Kategorie


Detale Torrenta


Wyścig śmierci 3: Piekło na ziemi - Death Race: Inferno *2012* [UNRATED] (60FPS) [1080p.DTS-HD MA.5.1.AC3.BluRay.x264-SONDA] [Lektor i Napisy PL] [ENG] [AT-TEAM]

S: 2L: 1P: 26
Dodał: Tracker:
Kondycja:Dodane:2016-04-01 15:07:04
Kategoria:Filmy X264 / H264  »  AkcjaRozmiar:26.61 GB
Język:Lektor PL  Lektor PL------------------
Obserwuj:OBSERWUJ TORRENTAStaty:UAKTUALNIJ TRACKER
Download: Pobierz TorrentRaport:RAPORTUJ TORRENTA
Wyścig śmierci 3: Piekło na ziemi - Death Race: Inferno *2012* [UNRATED] (60FPS) 1080p.BDRip-Sonda
=================================================================



gatunek: Akcja,Sci-Fi
produkcja: USA
premiera: 20 listopada 2012 (świat)
reżyseria: Roel Reiné
scenariusz: Tony Giglio

https://www.imdb.com/title/tt1988591/

OBSADA:

Luke Goss ... Carl 'Luke' Lucas
Ving Rhames ... Weyland
Danny Trejo ... Goldberg
Dougray Scott ... Niles York
Fred Koehler ... Lists
Tanit Phoenix ... Katrina Banks
Robin Shou ... 14K
Hlubi Mboya ... Diabolos

OPIS

Zasady są proste, jedź lub giń! Skruszony skazaniec Carl Lucas (Luke Goss) – znany jako Frankenstein – jest legendarnym kierowcą brutalnych i bardzo krwawych wyścigów śmierci, które odbywają się na terenie więzienia. Od wolności dzieli go tylko jeszcze jedno zwycięstwo. Lucasa pochłaniają przygotowania do tego decydującego i jednocześnie najbardziej okrutnego wyścigu w historii, który po raz pierwszy odbędzie się na pustyni. Przemierzając piekielną pustynię Kalahari w Południowej Afryce, Lucas musi zmierzyć się z bezwzględnymi przeciwnikami oraz potężną siłą, która za wszelką cenę chce uniemożliwić mu zwycięstwo.

Storyline:

Convicted cop-killer Carl Lucas, aka Frankenstein, is a superstar driver in the brutal prison yard demolition derby known as Death Race. Only one victory away from winning freedom for himself and his pit crew, Lucas is plunged into an all-new competition more vicious than anything he has experienced before. Pitted against his most ruthless adversaries ever, Lucas fights to keep himself and his team alive in a race in South Africa's infernal Kalahari Desert. With powerful forces at work behind the scenes to ensure his defeat, will Lucas' determination to win at all costs mean the end of the road for him?

Screenshot:







DANE TECH:

General
Format : Matroska
Format version : Version 2
File size : 26.6 GiB
Duration : 1h 45mn
Overall bit rate mode : Variable
Overall bit rate : 36.2 Mbps
Movie name : Death.Race.Inferno.2012.PL.1080p.BDRip.60FPS Rip by Sonda [AT-Team]
Encoded date : UTC 2016-03-30 16:30:05
Writing application : mkvmerge v5.7.0 ('The Whirlwind') built on Jul 8 2012 20:08:51
Writing library : libebml v1.2.3 + libmatroska v1.3.0

Video
ID : 1
Format : AVC
Format/INFO : Advanced Video Codec
Format profile : High@L4.1
Format settings, CABAC : Yes
Format settings, ReFrames : 4 frames
Codec ID : V_MPEG4/ISO/AVC
Duration : 1h 45mn
Nominal bit rate : 29.7 Mbps
Width : 1 920 pixels
Height : 1 080 pixels
Display aspect ratio : 16:9 (1.78:1)
Frame rate mode : Constant
Frame rate : 60.000 fps
Original frame rate : 59.940 fps
Color space : YUV
Chroma subsampling : 4:2:0
Bit depth : 8 bits
Scan type : Progressive
Bits/(Pixel*Frame) : 0.239
Title : 60FPS Rip by Sonda
Writing library : x264 core
Encoding settings : cabac=1 / ref=4 / deblock=1:-1:-1 / rc=2pass
Default : Yes
Forced : No
Color primaries : BT.709
Transfer characteristics : BT.709
Matrix coefficients : BT.709

Audio #1
ID : 2
Format : AC-3
Format/INFO : Audio Coding 3
Mode extension : CM (complete main)
Format settings, Endianness : Big
Codec ID : A_AC3
Duration : 1h 45mn
Bit rate mode : Constant
Bit rate : 640 Kbps
Channel count : 6 channels
Channel positions : Front: L C R, Side: L R, LFE
Sampling rate : 48.0 KHz
Bit depth : 16 bits
Compression mode : Lossy
Stream size : 482 MiB (2%)
Title : AC3 5.1 Lektor PL
Language : Polish
Default : Yes
Forced : Yes

Audio #2
ID : 3
Format : AC-3
Format/INFO : Audio Coding 3
Mode extension : CM (complete main)
Format settings, Endianness : Big
Codec ID : A_AC3
Duration : 1h 45mn
Bit rate mode : Constant
Bit rate : 640 Kbps
Channel count : 6 channels
Channel positions : Front: L C R, Side: L R, LFE
Sampling rate : 48.0 KHz
Bit depth : 16 bits
Compression mode : Lossy
Stream size : 482 MiB (2%)
Title : AC3 5.1
Language : English
Default : No
Forced : No

Audio #3
ID : 4
Format : DTS
Format/INFO : Digital Theater Systems
Mode : 16
Format settings, Endianness : Big
Codec ID : A_DTS
Duration : 1h 45mn
Bit rate mode : Constant
Bit rate : 768 Kbps
Channel count : 6 channels
Channel positions : Front: L C R, Side: L R, LFE
Sampling rate : 48.0 KHz
Bit depth : 24 bits
Compression mode : Lossy
Stream size : 578 MiB (2%)
Title : DTS 5.1 Lektor PL
Language : Polish
Default : No
Forced : No

Audio #4
ID : 5
Format : DTS
Format/INFO : Digital Theater Systems
Format profile : MA / Core
Mode : 16
Format settings, Endianness : Big
Codec ID : A_DTS
Duration : 1h 45mn
Bit rate mode : Variable
Bit rate : 4526 / 1 509 Kbps
Channel count : 6 channels
Channel positions : Front: L C R, Side: L R, LFE
Sampling rate : 48.0 KHz
Bit depth : 24 bits
Compression mode : Lossless / Lossy
Title : DTS-HD MA 5.1
Language : English
Default : No
Forced : No

Text #1
ID : 6
Format : UTF-8
Codec ID : S_TEXT/UTF8
Codec ID/INFO : UTF-8 Plain Text
Language : Polish
Default : No
Forced : No

Text #2
ID : 7
Format : PGS
Muxing mode : zlib
Codec ID : S_HDMV/PGS
Codec ID/INFO : The same subtitle format used on BDs/HD-DVDs
Language : English
Default : No
Forced : No

Source:
A/V-Death Race: Inferno (2012) [Unrated] [1080p] Blu-Ray
Thanks - Sonda







====================================================

PODOBNE TORRENTY
Death Race: Wyścig śmierci - Death Race *2008* [UNRATED] (60FPS) [1080p.DTS-HD MA.5.1.AC3.BluRay.x264-SONDA] [Lektor i Napisy PL] [ENG] [AT-TEAM] Death Race 2: Wyścig śmierci 2 - Death Race 2 *2010* [UNRATED] (60FPS) [1080p.DTS-HD MA.5.1.AC3.BluRay.x264-SONDA] [Lektor i Napisy PL] [ENG] [AT-TEAM] Wyścig śmierci 3:Piekło na ziemi - Death Race:Inferno *2012* [DVDRip] [XviD-NN] [Lektor PL] Wyścig śmierci 3:Piekło na Ziemi - Death Race:Inferno *2012* [DVDRip] [XviD-NN] [Lektor PL] Wyścig śmierci 3 Piekło na Ziemi - Death Race Inferno *2012* [AC3] [DVDRip] [XviD-GR4PE] [Lektor PL] Wyścig śmierci 3: Piekło na ziemi - Death Race: Inferno (2012) [480p] [BRRip.XviD.AC3] [Lektor PL]
Szczegóły torrenta
TRACKER
Tracker Podstawowy: http://tracker.torrenty.org:6969/announce

Multitrackery:

http://tracker.torrenty.org:6969/announce
http://tracker.tfile.me/announce
http://tracker.aletorrenty.pl:2710/announce
http://tracker.filetracker.pl:8089/announce
http://tracker.flashtorrents.org:6969/announce
udp://tracker.aletorrenty.pl:2710/announce
udp://torrent.gresille.org:80/announce
udp://9.rarbg.com:2710/announce
udp://9.rarbg.me:2710/announce
udp://eddie4.nl:6969/announce
udp://shadowshq.eddie4.nl:6969/announce
udp://tracker.leechers-paradise.org:6969/announce
udp://www.eddie4.nl:6969/announce

UAKTUALNIENIE
16/01/2019 21:09:23 (Jeśeli nie widac seeda kliknij na [uaktualnij] by odswieżyć statystyki).
[Lub sprawdź programem do pobierania torrentów, ponieważ niektóre trackery nie wyświetlają statystyk]
11 pliki
 
KOMENTARZE


Brak komentarzy...

DODAJ KOMENTARZ

Zaloguj się aby dodawać komentarze !!!



Wstecz








WRÓĆ NA GÓRĘ