FileTracker.PL - Darmowe polskie torrenty

Witaj drogi Towarzyszu!, jeżeli widzisz ten dymek to znaczy że nie jesteś jeszcze zarejestrowany/zalogowany. Kliknij by się zarejestrować . Rejestracja zajmie mniej niż 30 sekund, a dzięki niej zyskasz możliwość pobierania, komentowania oraz dodawania torrentów !
User:  Hasło:     



Kategorie


Detale Torrenta


Death Race 2: Wyścig śmierci 2 - Death Race 2 *2010* [UNRATED] (60FPS) [1080p.DTS-HD MA.5.1.AC3.BluRay.x264-SONDA] [Lektor i Napisy PL] [ENG] [AT-TEAM]

S: 8L: 22P: 39
Dodał: Tracker:
Kondycja:Dodane:2016-03-28 16:45:29
Kategoria:Filmy X264 / H264  »  AkcjaRozmiar:25.13 GB
Język:Lektor PL  Lektor PL------------------
Obserwuj:OBSERWUJ TORRENTAStaty:UAKTUALNIJ TRACKER
Download: Pobierz TorrentRaport:RAPORTUJ TORRENTA
Death Race 2: Wyścig śmierci 2 - Death Race 2 *2010* [UNRATED] (60FPS) 1080p.BDRip-Sonda
============================================================



gatunek: Akcja,Sci-Fi
produkcja: Niemcy,RPA
premiera: 27 grudnia 2010 (świat)
reżyseria: Roel Reiné
scenariusz: Tony Giglio

https://www.imdb.com/title/tt1500491/

OBSADA:

Luke Goss ... Carl 'Luke' Lucas
Sean Bean ... Markus Kane
Danny Trejo ... Goldberg
Ving Rhames ... Weyland
Fred Koehler ... Lists
Robin Shou ... 14K
Lauren Cohan ... September Jones
Tanit Phoenix ... Katrina Banks

OPIS

Twórcy zabierają nas do świata pełnego adrenaliny, do „Wyścigu Śmierci” – najbrutalniejszego na ziemi telewizyjnego show. Wybuchowy film, w którym kontrolę nad samochodami-zabójcami wyposażonymi w karabiny maszynowe przejmują tacy specjaliści jak: Sean Bean (Trylogia Władcy Pierścieni), Danny Trejo (Grindhouse), Luke Goss (Hellboy złota armia) i Ving Rhames (Piranie 3D). Wszystko po to, aby przenieść widza w świat wysokooktanowej i ultra brutalnej akcji!

Storyline:

Explores the origins of the first "Frankenstein" car driver, Carl "Luke" Lucas, who died in a race at the beginning of the first film.

Screenshot:







DANE TECH:

General
Format : Matroska
Format version : Version 2
File size : 25.1 GiB
Duration : 1h 40mn
Overall bit rate mode : Variable
Overall bit rate : 35.9 Mbps
Movie name : Death.Race.2.2010.PL.1080p.BDRip.60FPS Rip by Sonda [AT-Team]
Encoded date : UTC 2016-03-27 18:40:29
Writing application : mkvmerge v5.7.0 ('The Whirlwind') built on Jul 8 2012 20:08:51
Writing library : libebml v1.2.3 + libmatroska v1.3.0

Video
ID : 1
Format : AVC
Format/INFO : Advanced Video Codec
Format profile : High@L4.1
Format settings, CABAC : Yes
Format settings, ReFrames : 4 frames
Codec ID : V_MPEG4/ISO/AVC
Duration : 1h 40mn
Nominal bit rate : 29.7 Mbps
Width : 1 920 pixels
Height : 1 080 pixels
Display aspect ratio : 16:9 (1.78:1)
Frame rate mode : Constant
Frame rate : 60.000 fps
Original frame rate : 59.940 fps
Color space : YUV
Chroma subsampling : 4:2:0
Bit depth : 8 bits
Scan type : Progressive
Bits/(Pixel*Frame) : 0.239
Title : 60FPS Rip by Sonda
Writing library : x264 core
Encoding settings : cabac=1 / ref=4 / deblock=1:-1:-1 / rc=2pass
Default : Yes
Forced : No
Color primaries : BT.709
Transfer characteristics : BT.709
Matrix coefficients : BT.709

Audio #1
ID : 2
Format : AC-3
Format/INFO : Audio Coding 3
Mode extension : CM (complete main)
Format settings, Endianness : Big
Codec ID : A_AC3
Duration : 1h 40mn
Bit rate mode : Constant
Bit rate : 640 Kbps
Channel count : 6 channels
Channel positions : Front: L C R, Side: L R, LFE
Sampling rate : 48.0 KHz
Bit depth : 16 bits
Compression mode : Lossy
Stream size : 459 MiB (2%)
Title : AC3 5.1 Lektor PL
Language : Polish
Default : Yes
Forced : Yes

Audio #2
ID : 3
Format : AC-3
Format/INFO : Audio Coding 3
Mode extension : CM (complete main)
Format settings, Endianness : Big
Codec ID : A_AC3
Duration : 1h 40mn
Bit rate mode : Constant
Bit rate : 640 Kbps
Channel count : 6 channels
Channel positions : Front: L C R, Side: L R, LFE
Sampling rate : 48.0 KHz
Bit depth : 16 bits
Compression mode : Lossy
Stream size : 459 MiB (2%)
Title : AC3 5.1
Language : English
Default : No
Forced : No

Audio #3
ID : 4
Format : DTS
Format/INFO : Digital Theater Systems
Mode : 16
Format settings, Endianness : Big
Codec ID : A_DTS
Duration : 1h 40mn
Bit rate mode : Constant
Bit rate : 768 Kbps
Channel count : 6 channels
Channel positions : Front: L C R, Side: L R, LFE
Sampling rate : 48.0 KHz
Bit depth : 16 bits
Compression mode : Lossy
Stream size : 551 MiB (2%)
Title : DTS 5.1 Lektor PL
Language : Polish
Default : No
Forced : No

Audio #4
ID : 5
Format : DTS
Format/INFO : Digital Theater Systems
Format profile : MA / Core
Mode : 16
Format settings, Endianness : Big
Codec ID : A_DTS
Duration : 1h 40mn
Bit rate mode : Variable
Bit rate : 4136 / 1 509 Kbps
Channel count : 6 channels
Channel positions : Front: L C R, Side: L R, LFE
Sampling rate : 48.0 KHz
Bit depth : 24 bits
Compression mode : Lossless / Lossy
Title : DTS-HD MA 5.1
Language : English
Default : No
Forced : No

Text #1
ID : 6
Format : UTF-8
Codec ID : S_TEXT/UTF8
Codec ID/INFO : UTF-8 Plain Text
Language : Polish
Default : No
Forced : No

Text #2
ID : 7
Format : PGS
Muxing mode : zlib
Codec ID : S_HDMV/PGS
Codec ID/INFO : The same subtitle format used on BDs/HD-DVDs
Language : English
Default : No
Forced : No

Source:
A/V-Death Race 2 (2010) Blu-ray CEE 1080p VC-1 DTS 5.1-EiMi
Thanks - Sonda







====================================================

PODOBNE TORRENTY
Death Race: Wyścig śmierci - Death Race *2008* [UNRATED] (60FPS) [1080p.DTS-HD MA.5.1.AC3.BluRay.x264-SONDA] [Lektor i Napisy PL] [ENG] [AT-TEAM] Wyścig śmierci 3: Piekło na ziemi - Death Race: Inferno *2012* [UNRATED] (60FPS) [1080p.DTS-HD MA.5.1.AC3.BluRay.x264-SONDA] [Lektor i Napisy PL] [ENG] [AT-TEAM] Death Race 2. Wyścig śmierci 2 - Death Race 2 2010 [DVDRip.XviD-Nitro] [Lektor PL]  Death Race: Wyścig śmierci 2 - Death Race 2 *2010* [BRRip.XviD-NoNaNo] [Lektor PL] Death Race 2. Wyścig śmierci 2 - Death Race 2 *2010* [DVDRip] [XviD-NN] [Lektor PL] Death Race: Wyścig śmierci - Death Race 4: Beyond Anarchy *2018* [BRRip] [XviD-KRT] [Napisy PL]
Szczegóły torrenta
TRACKER
Tracker Podstawowy: http://tracker.torrenty.org:6969/announce

Multitrackery:

http://tracker.torrenty.org:6969/announce
http://tracker.tfile.me/announce
http://tracker.aletorrenty.pl:2710/announce
http://tracker.filetracker.pl:8089/announce
http://tracker.flashtorrents.org:6969/announce
udp://tracker.aletorrenty.pl:2710/announce
udp://torrent.gresille.org:80/announce
udp://9.rarbg.com:2710/announce
udp://9.rarbg.me:2710/announce
udp://eddie4.nl:6969/announce
udp://shadowshq.eddie4.nl:6969/announce
udp://tracker.leechers-paradise.org:6969/announce
udp://www.eddie4.nl:6969/announce

UAKTUALNIENIE
20/11/2018 22:27:41 (Jeśeli nie widac seeda kliknij na [uaktualnij] by odswieżyć statystyki).
[Lub sprawdź programem do pobierania torrentów, ponieważ niektóre trackery nie wyświetlają statystyk]
11 pliki
 
KOMENTARZE


Brak komentarzy...

DODAJ KOMENTARZ

Zaloguj się aby dodawać komentarze !!!



Wstecz








WRÓĆ NA GÓRĘ