FileTracker.PL - Darmowe polskie torrenty

Witaj drogi Towarzyszu!, jeżeli widzisz ten dymek to znaczy że nie jesteś jeszcze zarejestrowany/zalogowany. Kliknij by się zarejestrować . Rejestracja zajmie mniej niż 30 sekund, a dzięki niej zyskasz możliwość pobierania, komentowania oraz dodawania torrentów !
User:  Hasło:     



Kategorie


Detale Torrenta


Death Race: Wyścig śmierci - Death Race *2008* [UNRATED] (60FPS) [1080p.DTS-HD MA.5.1.AC3.BluRay.x264-SONDA] [Lektor i Napisy PL] [ENG] [AT-TEAM]

S: 19L: 34P: 52
Dodał: Tracker:
Kondycja:Dodane:2016-03-26 17:00:50
Kategoria:Filmy X264 / H264  »  AkcjaRozmiar:22.22 GB
Język:Lektor PL  Lektor PL------------------
Obserwuj:OBSERWUJ TORRENTAStaty:UAKTUALNIJ TRACKER
Download: Pobierz TorrentRaport:RAPORTUJ TORRENTA


Death Race: Wyścig śmierci - Death Race *2008* [UNRATED] (60FPS) 1080p.BDRip-Sonda
========================================================

gatunek: Akcja,Sci-Fi
produkcja: Niemcy,USA,Wielka Brytania
premiera: 3 października 2008 (Polska) 21 sierpnia 2008 (świat)
reżyseria: Paul W.S. Anderson
scenariusz: Paul W.S. Anderson

https://www.imdb.com/title/tt0452608/

OBSADA:

Jason Statham ... Jensen Ames
Joan Allen ... Hennessey
Ian McShane ... Coach
Tyrese Gibson ... "Karabin" Joe
Natalie Martinez ... Case
Max Ryan ... Pachenko
Jason Clarke ... Ulrich
Fred Koehler ... Lists

OPIS

Widzowie, śledzący sporty ekstremalne i programy typu reality, są spragnieni coraz bardziej brutalnych widowisk. Największe emocje budzą wyścigi samochodowe organizowane w więzieniach – mordercy i przestępcy nie cofną się przed niczym, gdy nagrodą jest wolność. Podrasowane samochody-monstra, wyposażone w karabiny, miotacze płomieni i wyrzutnie granatów sprawdzają się świetnie w grze o prostych regułach – wygraj 5 wyścigów i bądź wolny albo zgiń na torze. W takie piekło trafia niesłusznie skazany za morderstwo Jansen Ames (Jason Statham), mistrz wyścigów NASCAR. Szefowa więzienia Warden Hennessey (Joan Allen) stawia sprawę jasno. Udział w wyścigu śmierci to dla Jansena jedyna droga do wolności. Jego największym przeciwnikiem będzie Machine Gun Joe (Tyrese Gibson), człowiek, który dla wygranej nie cofnie się przed niczym.

Storyline:

In 2012, amid economic chaos and high unemployment, Americans watch by the millions as criminals with life sentences race armored cars on Terminal Island. Two-thirds of the combatants die but the winner may earn his freedom. On the day he loses his job, steelworker Jensen Ames is arrested for his wife's murder. Sent to Terminal Island, he's offered an out by the steely and manipulative Warden Hennessey - race as the popular mask-wearing (but now dead) champion, Frankenstein, or rot in prison. Jensen makes the bargain. As the three-stage race approaches, he realizes that the whole thing may be a set up - can an anonymous man behind a mask get revenge and win his release?

Screenshot:







DANE TECH:

General
Format : Matroska
Format version : Version 2
File size : 22.2 GiB
Duration : 1h 50mn
Overall bit rate mode : Variable
Overall bit rate : 28.8 Mbps
Movie name : Death.Race.2008.PL.1080p.BDRip.60FPS Rip by Sonda [AT-Team]
Encoded date : UTC 2016-03-17 17:05:35
Writing application : mkvmerge v5.7.0 ('The Whirlwind') built on Jul 8 2012 20:08:51
Writing library : libebml v1.2.3 + libmatroska v1.3.0

Video
ID : 1
Format : AVC
Format/INFO : Advanced Video Codec
Format profile : [email protected]
Format settings, CABAC : Yes
Format settings, ReFrames : 4 frames
Codec ID : V_MPEG4/ISO/AVC
Duration : 1h 50mn
Nominal bit rate : 22.5 Mbps
Width : 1 920 pixels
Height : 816 pixels
Display aspect ratio : 2.35:1
Frame rate mode : Constant
Frame rate : 60.000 fps
Original frame rate : 59.940 fps
Color space : YUV
Chroma subsampling : 4:2:0
Bit depth : 8 bits
Scan type : Progressive
Bits/(Pixel*Frame) : 0.239
Title : 60FPS Rip by Sonda
Writing library : x264 core
Encoding settings : cabac=1 / ref=4 / deblock=1:-1:-1 / rc=2pass
Default : Yes
Forced : No
Color primaries : BT.709
Transfer characteristics : BT.709
Matrix coefficients : BT.709

Audio #1
ID : 2
Format : AC-3
Format/INFO : Audio Coding 3
Mode extension : CM (complete main)
Format settings, Endianness : Big
Codec ID : A_AC3
Duration : 1h 50mn
Bit rate mode : Constant
Bit rate : 640 Kbps
Channel count : 6 channels
Channel positions : Front: L C R, Side: L R, LFE
Sampling rate : 48.0 KHz
Bit depth : 16 bits
Compression mode : Lossy
Stream size : 506 MiB (2%)
Title : AC3 5.1 Lektor PL
Language : Polish
Default : Yes
Forced : Yes

Audio #2
ID : 3
Format : AC-3
Format/INFO : Audio Coding 3
Mode extension : CM (complete main)
Format settings, Endianness : Big
Codec ID : A_AC3
Duration : 1h 50mn
Bit rate mode : Constant
Bit rate : 640 Kbps
Channel count : 6 channels
Channel positions : Front: L C R, Side: L R, LFE
Sampling rate : 48.0 KHz
Bit depth : 16 bits
Compression mode : Lossy
Stream size : 506 MiB (2%)
Title : AC3 5.1
Language : English
Default : No
Forced : No

Audio #3
ID : 4
Format : DTS
Format/INFO : Digital Theater Systems
Mode : 16
Format settings, Endianness : Big
Codec ID : A_DTS
Duration : 1h 50mn
Bit rate mode : Constant
Bit rate : 768 Kbps
Channel count : 6 channels
Channel positions : Front: L C R, Side: L R, LFE
Sampling rate : 48.0 KHz
Bit depth : 24 bits
Compression mode : Lossy
Stream size : 608 MiB (3%)
Title : DTS 5.1 Lektor PL
Language : Polish
Default : No
Forced : No

Audio #4
ID : 5
Format : DTS
Format/INFO : Digital Theater Systems
Format profile : MA / Core
Mode : 16
Format settings, Endianness : Big
Codec ID : A_DTS
Duration : 1h 50mn
Bit rate mode : Variable
Bit rate : 4247 / 1 509 Kbps
Channel count : 6 channels
Channel positions : Front: L C R, Side: L R, LFE
Sampling rate : 48.0 KHz
Bit depth : 24 bits
Compression mode : Lossless / Lossy
Title : DTS-HD MA 5.1
Language : English
Default : No
Forced : No

Text #1
ID : 6
Format : UTF-8
Codec ID : S_TEXT/UTF8
Codec ID/INFO : UTF-8 Plain Text
Language : Polish
Default : No
Forced : No

Text #2
ID : 7
Format : PGS
Muxing mode : zlib
Codec ID : S_HDMV/PGS
Codec ID/INFO : The same subtitle format used on BDs/HD-DVDs
Language : English
Default : No
Forced : No

Source:
A/V-Death Race [UNRATED] (2008) Blu-ray CEE 1080p AVC DTS 5.1-SG
Thanks - Sonda


====================================================

PODOBNE TORRENTY
Death Race 2: Wyścig śmierci 2 - Death Race 2 *2010* [UNRATED] (60FPS) [1080p.DTS-HD MA.5.1.AC3.BluRay.x264-SONDA] [Lektor i Napisy PL] [ENG] [AT-TEAM] Wyścig śmierci 3: Piekło na ziemi - Death Race: Inferno *2012* [UNRATED] (60FPS) [1080p.DTS-HD MA.5.1.AC3.BluRay.x264-SONDA] [Lektor i Napisy PL] [ENG] [AT-TEAM] Death Race - Wyścig Śmierci - Death Race *2008*[DVDRip.XviD] [Lektor.PL] [D.T.H0608] Death Race Wyścig śmierci - Death Race 2008 [DVDRip.XviD-Nitro] [Lektor PL] Death Race: Wyścig śmierci - Death Race *2008* [DVDRip.XviD-NoNaNo] [Lektor PL] Death Race:Wyścig śmierci - Death Race *2008* [DVDRip] [XviD-NN] [Lektor PL]
Szczegóły torrenta
TRACKER
Tracker Podstawowy: http://tracker.torrenty.org:6969/announce

Multitrackery:

http://tracker.torrenty.org:6969/announce
http://tracker.tfile.me/announce
http://tracker.aletorrenty.pl:2710/announce
http://tracker.filetracker.pl:8089/announce
http://tracker.flashtorrents.org:6969/announce
udp://tracker.aletorrenty.pl:2710/announce
udp://torrent.gresille.org:80/announce
udp://9.rarbg.com:2710/announce
udp://9.rarbg.me:2710/announce
udp://eddie4.nl:6969/announce
udp://shadowshq.eddie4.nl:6969/announce
udp://tracker.leechers-paradise.org:6969/announce
udp://www.eddie4.nl:6969/announce

UAKTUALNIENIE
20/11/2018 22:22:25 (Jeśeli nie widac seeda kliknij na [uaktualnij] by odswieżyć statystyki).
[Lub sprawdź programem do pobierania torrentów, ponieważ niektóre trackery nie wyświetlają statystyk]
12 pliki
 
KOMENTARZE


Brak komentarzy...

DODAJ KOMENTARZ

Zaloguj się aby dodawać komentarze !!!



Wstecz








WRÓĆ NA GÓRĘ