FileTracker.PL - Darmowe polskie torrenty

Witaj drogi Towarzyszu!, jeżeli widzisz ten dymek to znaczy że nie jesteś jeszcze zarejestrowany/zalogowany. Kliknij by się zarejestrować . Rejestracja zajmie mniej niż 30 sekund, a dzięki niej zyskasz możliwość pobierania, komentowania oraz dodawania torrentów !
User:  Hasło:     



Kategorie


Detale Torrenta


Underworld: Przebudzenie - Underworld: Awakening *2012* [60FPS.1080p.DTS-HD MA.5.1.AC3.BluRay.x264-SONDA] [Lektor i Napisy PL] [ENG] [AT-TEAM]

S: 1L: 3P: 57
Dodał: Tracker:
Kondycja:Dodane:2016-03-08 16:56:31
Kategoria:Filmy X264 / H264  »  AkcjaRozmiar:15.91 GB
Język:Lektor PL  Lektor PL------------------
Obserwuj:OBSERWUJ TORRENTAStaty:UAKTUALNIJ TRACKER
Download: Pobierz TorrentRaport:RAPORTUJ TORRENTA
Underworld: Przebudzenie - Underworld: Awakening *2012* 60FPS.1080p.BDRip-Sonda
=========================================================



gatunek: Horror,Akcja
produkcja: USA
premiera: 20 stycznia 2012 (Polska) 19 stycznia 2012 (świat)
reżyseria: Mans Marlind,Björn Stein
scenariusz: John Hlavin,J. Michael Straczynski,Allison Burnett,Len Wiseman

https://www.imdb.com/title/tt1496025/

OBSADA:

Kate Beckinsale...Selene
Stephen Rea...Dr Jacob Lane
Michael Ealy...Detektyw Sebastian
Theo James...David
India Eisley...Eve
Sandrine Holt ... Lida
Charles Dance ... Thomas
Kris Holden-Ried ... Quint

OPIS

Długo wyczekiwana kontynuacja trylogii, która na całym świecie zarobiła niemal 300 milionów dolarów. Kate Beckinsale powraca w roli wampirzycy Seleny, która po latach uśpienia budzi się w świecie, w którym ludzie wiedzą już o istnieniu wampirów i lykanów. Trwają przygotowania do wielkiej wojny, skierowanej przeciwko dwóm nieśmiertelnym rasom.

Storyline:

Mankind discover the existence of the Vampire and Lycan species and they begin a war to annihilate the races. When Selene meets with Michael in the harbor, they are hit by a grenade and Selene passes out. Twelve years later, Selene awakes from a cryogenic sleep in the Antigen laboratory and meets the Vampire David. She learns that she had been the subject of the scientist Dr. Jacob Lane and the Vampire and Lycan species have been practically eradicated from Earth. But Selene is still connected to Michael and has visions that she believes that belongs to Michael's sight. However she has a surprise and finds that she has a powerful daughter named Eve that has been raised in the laboratory. Now Selene and David have to protect Eve against the Lycans that intend to use her to inoculate their species against silver.

Screenshot:







DANE TECH:

General
Format : Matroska
Format version : Version 2
File size : 15.9 GiB
Duration : 1h 28mn
Overall bit rate mode : Variable
Overall bit rate : 25.7 Mbps
Movie name : Underworld.Awakening.2012.PL.1080p.BDRip.60FPS Rip by Sonda [AT-Team]
Encoded date : UTC 2016-03-07 12:58:03
Writing application : mkvmerge v5.7.0 ('The Whirlwind') built on Jul 8 2012 20:08:51
Writing library : libebml v1.2.3 + libmatroska v1.3.0

Video
ID : 1
Format : AVC
Format/INFO : Advanced Video Codec
Format profile : High@L4.1
Format settings, CABAC : Yes
Format settings, ReFrames : 4 frames
Codec ID : V_MPEG4/ISO/AVC
Duration : 1h 28mn
Nominal bit rate : 22.0 Mbps
Width : 1 920 pixels
Height : 800 pixels
Display aspect ratio : 2.40:1
Frame rate mode : Constant
Frame rate : 60.000 fps
Original frame rate : 59.940 fps
Color space : YUV
Chroma subsampling : 4:2:0
Bit depth : 8 bits
Scan type : Progressive
Bits/(Pixel*Frame) : 0.239
Title : 60FPS Rip by Sonda
Writing library : x264 core
Encoding settings : cabac=1 / ref=4 / deblock=1:-1:-1 / rc=2pass
Default : Yes
Forced : No
Color primaries : BT.709
Transfer characteristics : BT.709
Matrix coefficients : BT.709

Audio #1
ID : 2
Format : AC-3
Format/INFO : Audio Coding 3
Mode extension : CM (complete main)
Format settings, Endianness : Big
Codec ID : A_AC3
Duration : 1h 28mn
Bit rate mode : Constant
Bit rate : 640 Kbps
Channel count : 6 channels
Channel positions : Front: L C R, Side: L R, LFE
Sampling rate : 48.0 KHz
Bit depth : 16 bits
Compression mode : Lossy
Stream size : 406 MiB (2%)
Title : AC3 5.1 Lektor PL
Language : Polish
Default : Yes
Forced : Yes

Audio #2
ID : 3
Format : AC-3
Format/INFO : Audio Coding 3
Mode extension : CM (complete main)
Format settings, Endianness : Big
Codec ID : A_AC3
Duration : 1h 28mn
Bit rate mode : Constant
Bit rate : 640 Kbps
Channel count : 6 channels
Channel positions : Front: L C R, Side: L R, LFE
Sampling rate : 48.0 KHz
Bit depth : 16 bits
Compression mode : Lossy
Stream size : 406 MiB (2%)
Title : AC3 5.1
Language : English
Default : No
Forced : No

Audio #3
ID : 4
Format : DTS
Format/INFO : Digital Theater Systems
Format profile : MA / Core
Mode : 16
Format settings, Endianness : Big
Codec ID : A_DTS
Duration : 1h 28mn
Bit rate mode : Variable
Bit rate : 2422 / 1 509 Kbps
Channel count : 6 channels
Channel positions : Front: L C R, Side: L R, LFE
Sampling rate : 48.0 KHz
Bit depth : 16 bits
Compression mode : Lossless / Lossy
Title : DTS-HD MA 5.1
Language : English
Default : No
Forced : No

Text #1
ID : 5
Format : UTF-8
Codec ID : S_TEXT/UTF8
Codec ID/INFO : UTF-8 Plain Text
Language : Polish
Default : No
Forced : No

Text #2
ID : 6
Format : PGS
Muxing mode : zlib
Codec ID : S_HDMV/PGS
Codec ID/INFO : The same subtitle format used on BDs/HD-DVDs
Language : English
Default : No
Forced : No

Source:
A/V-Underworld: Awakening (2012) Blu-ray CEE 1080p AVC DD5.1-HDCLUB
Thanks - Sonda


====================================================

PODOBNE TORRENTY
Underworld: Ewolucja - Underworld: Evolution *2006* [60FPS.1080p.DTS-HD MA.5.1.AC3.BluRay.x264-SONDA] [Lektor i Napisy PL] [ENG] [AT-TEAM] Underworld: Bunt Lykanów - Underworld: Rise of the Lycans *2009* [60FPS.1080p.DTS-HD MA.5.1.AC3.BluRay.x264-SONDA] [Lektor i Napisy PL] [ENG] [AT-TEAM] Underworld: Przebudzenie  3D - Underworld: Awakening 3D *2012* [miniHD] [1080p.BluRay.x264.HOU.AC3-Leon 345] [Lektor PL] Underworld: Przebudzenie - Underworld: Awakening *2012* [m1080p] [BluRay] [x264] [AC3-LTN] [Lektor PL] Underworld *2003* (Theatrical Cut) [60FPS.1080p.DTS-HD MA.5.1.AC3.BluRay.x264-SONDA] [Lektor i Napisy PL] [ENG] [AT-TEAM] Underworld: Przebudzenie - Underworld: Awakening (2012) [AC3.DVDRip] [XviD-GR4PE] [Lektor PL]
Szczegóły torrenta
TRACKER
Tracker Podstawowy: http://tracker.torrenty.org:6969/announce

Multitrackery:

http://tracker.torrenty.org:6969/announce
http://tracker.aletorrenty.pl:2710/announce
http://tracker.filetracker.pl:8089/announce
http://www.tlv.cc:7777/announce
http://tracker.flashtorrents.org:6969/announce
http://tracker.pubt.net:2710/announce
udp://tracker.aletorrenty.pl:2710/announce
udp://torrent.gresille.org:80/announce
udp://9.rarbg.com:2710/announce
udp://9.rarbg.me:2710/announce
udp://coppersurfer.tk:6969/announce
udp://eddie4.nl:6969/announce
udp://glotorrents.com:6969/announce
udp://open.demonii.com:1337/announce
udp://shadowshq.eddie4.nl:6969/announce
udp://tracker.glotorrents.com:6969/announce
udp://tracker.leechers-paradise.org:6969/announce
udp://www.eddie4.nl:6969/announce
udp://open.demonii.com:1337

UAKTUALNIENIE
05/07/2020 23:50:55 (Jeśeli nie widac seeda kliknij na [uaktualnij] by odswieżyć statystyki).
[Lub sprawdź programem do pobierania torrentów, ponieważ niektóre trackery nie wyświetlają statystyk]
11 pliki
 
KOMENTARZE


Brak komentarzy...

DODAJ KOMENTARZ

Zaloguj się aby dodawać komentarze !!!



Wstecz








WRÓĆ NA GÓRĘ