FileTracker.PL - Darmowe polskie torrenty

Witaj drogi Towarzyszu!, jeżeli widzisz ten dymek to znaczy że nie jesteś jeszcze zarejestrowany/zalogowany. Kliknij by się zarejestrować . Rejestracja zajmie mniej niż 30 sekund, a dzięki niej zyskasz możliwość pobierania, komentowania oraz dodawania torrentów !
User:  Hasło:     



Kategorie


Detale Torrenta


Elementary S04E01 - The Past Is Parent [720p.WEB-DL.H.264.AC3] [Lektor PL]

S: 83L: 100P: 129
Dodał: Wacek1 Tracker:
Kondycja:Dodane:2015-11-16 19:46:45
Kategoria:Seriale  »  KryminalneRozmiar:1.27 GB
Język:Lektor PL  Lektor PL------------------
Obserwuj:OBSERWUJ TORRENTAStaty:UAKTUALNIJ TRACKER
Download: Pobierz TorrentRaport:RAPORTUJ TORRENTA


produkcja: USA
gatunek: Kryminał, Dramat
scenariusz: Peter Blake, Liz Friedman
reżyseria: Michael Cuesta, John David Coles
zdjęcia: Ron Fortunato, Roy H. Wagner
muzyka: Sean Callery, Zoe Keating
czas trwania: ok. 43 min.



Londyński detektyw Sherlock Holmes wraz ze swoją terapeutką Joan Watson pomagają nowojorskiej policji w rozwiązywaniu najtrudniejszych zagadek kryminalnych.



Jonny Lee Miller - Sherlock Holmes
Lucy Liu - Joan Watson
Aidan Quinn - Tobias Gregson
Jon Michael Hill - Marcus Bell



Format : Matroska
Format version : Version 4 / Version 2
File size : 1.27 GiB
Duration : 43mn 15s
Overall bit rate : 4 211 Kbps

Video
ID : 1
Format : AVC
Format/INFO : Advanced Video Codec
Format profile : High@L3.1
Format settings, CABAC : No
Format settings, ReFrames : 2 frames
Codec ID : V_MPEG4/ISO/AVC
Duration : 43mn 15s
Bit rate : 3 903 Kbps
Width : 1 280 pixels
Height : 720 pixels
Display aspect ratio : 16:9
Frame rate mode : Constant
Frame rate : 23.976 fps
Color space : YUV
Chroma subsampling : 4:2:0
Bit depth : 8 bits
Scan type : Progressive
Bits/(Pixel*Frame) : 0.177
Stream size : 1.18 GiB (93%)
Color primaries : BT.709
Transfer characteristics : BT.709
Matrix coefficients : BT.709

Audio
ID : 2
Format : AC-3
Format/INFO : Audio Coding 3
Mode extension : CM (complete main)
Format settings, Endianness : Big
Codec ID : A_AC3
Duration : 43mn 15s
Bit rate mode : Constant
Bit rate : 224 Kbps
Channel(s) : 2 channels
Channel positions : Front: L R
Sampling rate : 48.0 KHz
Bit depth : 16 bits
Compression mode : Lossy
Stream size : 69.3 MiB (5%)
Language : Polish


====================================================

PODOBNE TORRENTY
Elementary S04E01 The Past Is Parent [480p] [WEB-DL.XviD.AC3-raju] [Lektor PL] Elementary [S04E01] [720p] [HDTV] [x264-DIMENSION] [ENG] Elementary [S04E01] [WEB-DL] [XviD-DeiX] [Lektor PL] Elementary [S04E01] [HDTV] [x264-LOL] [ENG] Elementary [S04E01] [HDTV] [Xvid-FUM] [ENG] +++ [HD] JUKF-029 parent households, the only daughter of a single parent home environment is brought up by his father, I think serious girls only Hina-Chan
Szczegóły torrenta
TRACKER
Tracker Podstawowy: http://tracker.torrenty.org:6969/announce

Multitrackery:

http://tracker.torrenty.org:6969/announce
http://94.228.192.98/announce
udp://tracker.leechers-paradise.org:6969/announce
udp://coppersurfer.tk:6969/announce
udp://9.rarbg.me:2710/announce
http://www.tlv.cc:7777/announce
udp://exodus.desync.com:6969/announce
http://retracker.omsk.ru:2710/announce
udp://open.demonii.com:1337/announce
udp://shadowshq.eddie4.nl:6969/announce
udp://9.rarbg.com:2710/announce

UAKTUALNIENIE
14/04/2019 10:39:06 (Jeśeli nie widac seeda kliknij na [uaktualnij] by odswieżyć statystyki).
[Lub sprawdź programem do pobierania torrentów, ponieważ niektóre trackery nie wyświetlają statystyk]
1 file
 
KOMENTARZE


Brak komentarzy...

DODAJ KOMENTARZ

Zaloguj się aby dodawać komentarze !!!



Wstecz








WRÓĆ NA GÓRĘ