FileTracker.PL - Darmowe polskie torrenty

Witaj drogi Towarzyszu!, jeżeli widzisz ten dymek to znaczy że nie jesteś jeszcze zarejestrowany/zalogowany. Kliknij by się zarejestrować . Rejestracja zajmie mniej niż 30 sekund, a dzięki niej zyskasz możliwość pobierania, komentowania oraz dodawania torrentów !
User:  Hasło:     



Kategorie


Detale Torrenta


Czekając na Joe - Touching the Void *2003* [1080p.DTS-HD HR 5.1.AC3.BluRay.x264-SONDA] [Lektor i Napisy PL] [ENG] [AT-TEAM]

S: 4L: 1P: 37
Dodał: Tracker:
Kondycja:Dodane:2015-11-16 16:25:38
Kategoria:Filmy X264 / H264  »  DramatRozmiar:11.57 GB
Język:Lektor PL  Lektor PL------------------
Obserwuj:OBSERWUJ TORRENTAStaty:UAKTUALNIJ TRACKER
Download: Pobierz TorrentRaport:RAPORTUJ TORRENTA


gatunek: Dramat,Dokumentalizowany
produkcja: Wielka Brytania
premiera: 26 marca 2004 (Polska) 5 września 2003 (świat)
reżyseria: Kevin Macdonald
scenariusz: Joe Simpson

https://www.imdb.com/title/tt0379557/

OBSADA:

Brendan Mackey ... Joe Simpson
Nicholas Aaron ... Simon Yates
Ollie Ryall ... Richard Hawking
Joe Simpson ... (on sam)
Simon Yates ... (on sam)
Richard Hawking ... (on sam)

OPIS

Oparta na faktach rekonstrukcja niebezpiecznej wyprawy górskiej, podczas której doszło do fatalnego wypadku.

Wydarzenia przedstawione w dokumencie zdobywcy Oskara za "One Day in September" Kevina Macdonalda rozegrały się w roku 1985, a jego bohaterowie byli wówczas młodymi, sprawnymi, świetnie wyszkolonymi alpinistami. Joe Simpson i Simon Yates wyruszają w góry, aby zdobyć szczyt Siula Grande w peruwiańskich Andach od ściany zachodniej. Do tej pory ta sztuka nie udała się nikomu. Pierwsze trzy dni wyprawy przebiegają zgodnie z planem, jednak w końcu zdarza się wypadek. Joe Simpson upada i łamie sobie kilka kości w nodze. Bez szans na jakąkolwiek pomoc, obaj śmiałkowie postanawiają kontynuować wspinaczkę z Joe Simpsonem zawieszonym na linie. Każdy fałszywy ruch może się okazać dla nich śmiertelny.

Storyline:

In the mid-80's two young climbers attempted to reach the summit of Siula Grande in Peru; a feat that had previously been attempted but never achieved. With an extra man looking after base camp, Simon and Joe set off to scale the mount in one long push over several days. The peak is reached, however on the descent Joe falls and breaks his leg. Despite what it means, the two continue with Simon letting Joe out on a rope for 300 meters, then descending to join him and so on. However when Joe goes out over an overhang with no way of climbing back up, Simon makes the decision to cut the rope. Joe falls into a crevasse and Simon, assuming him dead, continues back down. Joe however survives the fall and was lucky to hit a ledge in the crevasse. This is the story of how he got back down.

Screenshot:







General
Format : Matroska
Format version : Version 2
File size : 11.6 GiB
Duration : 1h 46mn
Overall bit rate : 15.6 Mbps
Movie name : TOUCHING_THE_VOID_2003.PL.BDRip.1080p Rip by Sonda [AT-Team]
Encoded date : UTC 2015-11-16 13:00:09
Writing application : mkvmerge v5.7.0 ('The Whirlwind') built on Jul 8 2012 20:08:51
Writing library : libebml v1.2.3 + libmatroska v1.3.0

Video
ID : 1
Format : AVC
Format/INFO : Advanced Video Codec
Format profile : High@L4.1
Format settings, CABAC : Yes
Format settings, ReFrames : 4 frames
Codec ID : V_MPEG4/ISO/AVC
Duration : 1h 46mn
Bit rate : 12.5 Mbps
Width : 1 920 pixels
Height : 1 080 pixels
Display aspect ratio : 16:9 (1.85:1)
Frame rate mode : Constant
Frame rate : 23.976 fps
Color space : YUV
Chroma subsampling : 4:2:0
Bit depth : 8 bits
Scan type : Progressive
Bits/(Pixel*Frame) : 0.251
Stream size : 9.06 GiB (78%)
Title : Rip by Sonda
Writing library : x264
Encoding settings : cabac=1 / ref=4 / deblock=1:-1:-1 / rc=2pass
Default : Yes
Forced : No

Audio #1
ID : 2
Format : AC-3
Format/INFO : Audio Coding 3
Mode extension : CM (complete main)
Format settings, Endianness : Big
Codec ID : A_AC3
Duration : 1h 46mn
Bit rate mode : Constant
Bit rate : 384 Kbps
Channel count : 6 channels
Channel positions : Front: L C R, Side: L R, LFE
Sampling rate : 48.0 KHz
Bit depth : 16 bits
Compression mode : Lossy
Delay relative to video : 905ms
Stream size : 292 MiB (2%)
Title : AC3 5.1 Lektor PL
Language : Polish
Default : Yes
Forced : Yes

Audio #2
ID : 3
Format : AC-3
Format/INFO : Audio Coding 3
Mode extension : CM (complete main)
Format settings, Endianness : Big
Codec ID : A_AC3
Duration : 1h 46mn
Bit rate mode : Constant
Bit rate : 640 Kbps
Channel count : 6 channels
Channel positions : Front: L C R, Side: L R, LFE
Sampling rate : 48.0 KHz
Bit depth : 16 bits
Compression mode : Lossy
Stream size : 487 MiB (4%)
Title : AC3 5.1
Language : English
Default : No
Forced : No

Audio #3
ID : 4
Format : DTS
Format/INFO : Digital Theater Systems
Format profile : HRA / Core
Mode : 16
Format settings, Endianness : Big
Codec ID : A_DTS
Duration : 1h 46mn
Bit rate mode : Constant
Bit rate : 2 046 Kbps / 1 509 Kbps
Channel count : 6 channels
Channel positions : Front: L C R, Side: L R, LFE
Sampling rate : 48.0 KHz
Bit depth : 24 bits
Compression mode : Lossy
Stream size : 1.52 GiB (13%)
Title : DTS-HD HR 5.1
Language : English
Default : No
Forced : No

Text #1
ID : 5
Format : UTF-8
Codec ID : S_TEXT/UTF8
Codec ID/INFO : UTF-8 Plain Text
Language : Polish
Default : No
Forced : No

Text #2
ID : 6
Format : PGS
Muxing mode : zlib
Codec ID : S_HDMV/PGS
Codec ID/INFO : The same subtitle format used on BDs/HD-DVDs
Language : English
Default : No
Forced : No

Source:
A/V-Touching the Void (2003) 1080p BD-Remux-HDCLUB
Lektor PL - DVD
Thanks - Sonda





====================================================

PODOBNE TORRENTY
Czekając na Joe - Touching the Void *2003* [DVDRip.XviD] [Lektor PL] Czekając na Joe - Touching the Void *2003* [BRRip] [XviD-NN] [Lektor PL] Czekając na Joe - Touching the Void *2003* [BRRip] [XviD] [Lektor PL] Czekając na Joe - Touching The Void *2003* [720p.BRRip.XviD.AC3-Nitro] [Lektor PL] Bad Boys II *2003* (60 FPS) [1080p.DTS-HD MA 5.1.AC3.BluRay.x264-SONDA] [Lektor i Napisy PL] [ENG] [AT-TEAM] Underworld *2003* (Theatrical Cut) [60FPS.1080p.DTS-HD MA.5.1.AC3.BluRay.x264-SONDA] [Lektor i Napisy PL] [ENG] [AT-TEAM]
Szczegóły torrenta
TRACKER
Tracker Podstawowy: http://tracker.torrenty.org:6969/announce

Multitrackery:

http://tracker.torrenty.org:6969/announce
http://tracker.aletorrenty.pl:2710/announce
http://tracker.filetracker.pl:8089/announce
http://www.tlv.cc:7777/announce
http://tracker.flashtorrents.org:6969/announce
http://tracker.pubt.net:2710/announce
udp://tracker.aletorrenty.pl:2710/announce
udp://torrent.gresille.org:80/announce
udp://9.rarbg.com:2710/announce
udp://9.rarbg.me:2710/announce
udp://coppersurfer.tk:6969/announce
udp://eddie4.nl:6969/announce
udp://glotorrents.com:6969/announce
udp://open.demonii.com:1337/announce
udp://shadowshq.eddie4.nl:6969/announce
udp://tracker.glotorrents.com:6969/announce
udp://tracker.leechers-paradise.org:6969/announce
udp://www.eddie4.nl:6969/announce
udp://open.demonii.com:1337

UAKTUALNIENIE
19/10/2019 22:01:35 (Jeśeli nie widac seeda kliknij na [uaktualnij] by odswieżyć statystyki).
[Lub sprawdź programem do pobierania torrentów, ponieważ niektóre trackery nie wyświetlają statystyk]
11 pliki
 
KOMENTARZE


Brak komentarzy...

DODAJ KOMENTARZ

Zaloguj się aby dodawać komentarze !!!



Wstecz








WRÓĆ NA GÓRĘ