FileTracker.PL - Darmowe polskie torrenty

Witaj drogi Towarzyszu!, jeżeli widzisz ten dymek to znaczy że nie jesteś jeszcze zarejestrowany/zalogowany. Kliknij by się zarejestrować . Rejestracja zajmie mniej niż 30 sekund, a dzięki niej zyskasz możliwość pobierania, komentowania oraz dodawania torrentów !
User:  Hasło:     



Kategorie


Detale Torrenta


Air America (1990)[BRRip.1080p.x265-HEVC by alE13.AC3/DTS] [Lektor i napisy PL/ENG] [ENG]

S: 12L: 42P: 70
Dodał: alE13 Tracker:
Kondycja:Dodane:2015-11-16 03:34:46
Kategoria:Filmy UHD4K / x265  »  SensacyjneRozmiar:7.02 GB
Język:Lektor PL  Lektor PL------------------
Obserwuj:OBSERWUJ TORRENTAStaty:UAKTUALNIJ TRACKER
Download: Pobierz TorrentRaport:RAPORTUJ TORRENTA




https://www.filmweb.pl/film/Air+America-1990-3731
https://www.imdb.com/title/tt0099005/

reżyseria: Roger Spottiswoode
scenariusz: John Eskow,Richard Rush
gatunek: Komedia,Sensacyjny
produkcja: USA
premiera: 10-08-1990
muzyka: Charles Gross
zdjęcia: Roger Deakins
czas: 01:52:36



A young pilot finds himself recruited unwittingly into a covert and corrupt CIA airlift organization
operating in Vietnam War Era Laos.

Po niebie Laosu szaleją samoloty sterowane przez nieobliczalnych pilotów. Trwa tam nieoficjalna wojna,
podczas której amerykańscy piloci wspierają siły zwalczające komunistów. Gene Ryack jest jednym z nich.
Lubi ryzyko i dobry zarobek, jaki zapewnia ta niebezpieczna praca. Wie, że w razie kłopotów nie może
liczyć na niczyją pomoc, bo przecież oficjalnie nie ma w Laosie amerykańskich pilotów. A kłopoty nadchodzą
wraz z nowym rekrutem, który nie lubi się stosować do ogólnie przyjętych zasad.








Mel Gibson, Robert Downey Jr., Nancy Travis



Air America (1990)-alE13.mkv
Format : Matroska
Format version : Version 4 / Version 2
File size : 6.81 GiB
Duration : 1h 52mn
Overall bit rate : 8 661 Kbps
Movie name : Air America (1990)-alE13
Encoded date : UTC 2015-11-16 01:48:01
Writing application : mkvmerge v8.1.0 ('Psychedelic Postcard') 64bit
Writing library : libebml v1.3.1 + libmatroska v1.4.2
DURATION : 01:43:45.893000000
NUMBER_OF_FRAMES : 979
NUMBER_OF_BYTES : 34511
_STATISTICS_WRITING_APP : mkvmerge v8.1.0 ('Psychedelic Postcard') 64bit
_STATISTICS_WRITING_DATE_UT : 2015-11-16 01:48:01
_STATISTICS_TAGS : BPS DURATION NUMBER_OF_FRAMES NUMBER_OF_BYTES

Video
ID : 1
Format : HEVC
Format/INFO : High Efficiency Video Coding
Codec ID : V_MPEGH/ISO/HEVC
Duration : 1h 52mn
Bit rate : 6 724 Kbps
Width : 1 920 pixels
Height : 816 pixels
Display aspect ratio : 2.35:1
Frame rate mode : Constant
Frame rate : 23.976 fps
Bits/(Pixel*Frame) : 0.179
Stream size : 5.29 GiB (78%)
Language : English
Default : Yes
Forced : No

Audio #1
ID : 2
Format : AC-3
Format/INFO : Audio Coding 3
Mode extension : CM (complete main)
Format settings, Endianness : Big
Codec ID : A_AC3
Duration : 1h 52mn
Bit rate mode : Constant
Bit rate : 256 Kbps
Channel(s) : 2 channels
Channel positions : Front: L R
Sampling rate : 44.1 KHz
Compression mode : Lossy
Delay relative to video : 58s 610ms
Stream size : 206 MiB (3%)
Title : Air America (1990)-alE13
Language : Polish
Default : Yes
Forced : No

Audio #2
ID : 3
Format : DTS
Format/INFO : Digital Theater Systems
Mode : 16
Format settings, Endianness : Big
Codec ID : A_DTS
Duration : 1h 52mn
Bit rate mode : Constant
Bit rate : 1 509 Kbps
Channel(s) : 6 channels
Channel positions : Front: L C R, Side: L R, LFE
Sampling rate : 48.0 KHz
Bit depth : 24 bits
Compression mode : Lossy
Stream size : 1.19 GiB (17%)
Title : Air America (1990)-alE13
Language : English
Default : No
Forced : No

Text #1
ID : 4
Format : UTF-8
Codec ID : S_TEXT/UTF8
Codec ID/INFO : UTF-8 Plain Text
Title : Air America (1990)-alE13
Language : Polish
Default : Yes
Forced : No

Text #2
ID : 5
Format : UTF-8
Codec ID : S_TEXT/UTF8
Codec ID/INFO : UTF-8 Plain Text
Title : Air America (1990)-alE13
Language : English
Default : No
Forced : No

====================================================

PODOBNE TORRENTY
Odwet-RevENGe (1990) [BRRip.1080p.x265-HEVC-by alE13.DTS/AC3] [Lektor i Napisy PL/Ger] [ENG] Powrót do przyszłości-Back to the Future Trilogy (1985/1989/1990)[BRRip.1080p.x265-HEVC by alE13.AC3] [Lektor i Napisy PL/ENG] [ENG] Kwaidan, czyli opowieści niesamowite-Kwaidan (1964)-alE13[BRRip.1080p.x265-HEVC by alE13.AC3] [Lektor i Napisy ENG] [ENG] Bandolero! (1968)[BRRip.1080p.x265-HEVC-by alE13.AC3] [Lektor i Napisy PL/ENGl] [ENG] Flic Story (1975)[BRRip.1080p.x265-HEVC by alE13.AC3/DTS] [Lektor i Napisy PL/ENG] [Fre] Bestseller-Best Seller (1987)[BRRip.1080p.x265-HEVC by alE13.AC3/DTS] [Lektor i Napisy PL/ENG] [ENG]
Szczegóły torrenta
TRACKER
Tracker Podstawowy: http://tracker.aletorrenty.pl:2710/announce

Multitrackery:

http://tracker.aletorrenty.pl:2710/announce
http://tracker.filetracker.pl:8089/announce
http://tracker.torrenty.org:6969/announce
http://tracker.ex.ua/announce
udp://inferno.demonoid.ooo:3392/announce
http://torrent.gresille.org/announce.php
udp://tracker.aletorrenty.pl:2710/announce
udp://tracker.openbittorrent.com:80/announce
udp://tracker.leechers-paradise.org:6969/announce

UAKTUALNIENIE
09/08/2020 21:48:51 (Jeśeli nie widac seeda kliknij na [uaktualnij] by odswieżyć statystyki).
[Lub sprawdź programem do pobierania torrentów, ponieważ niektóre trackery nie wyświetlają statystyk]
16 pliki
 
KOMENTARZE


Brak komentarzy...

DODAJ KOMENTARZ

Zaloguj się aby dodawać komentarze !!!



Wstecz








WRÓĆ NA GÓRĘ