FileTracker.PL - Darmowe polskie torrenty

Witaj drogi Towarzyszu!, jeżeli widzisz ten dymek to znaczy że nie jesteś jeszcze zarejestrowany/zalogowany. Kliknij by się zarejestrować . Rejestracja zajmie mniej niż 30 sekund, a dzięki niej zyskasz możliwość pobierania, komentowania oraz dodawania torrentów !
User:  Hasło:     



Kategorie


Detale Torrenta


10 minut do północy-10 to Midnight (1983)[BRRip.1080p.x265-HEVC by alE13.AC3/DTS][Lektor i Napisy PL/Eng][Eng]

S: 11L: 50P: 36
Dodał: alE13 Tracker:
Kondycja:Dodane:2015-11-09 06:21:40
Kategoria:Filmy UHD4K / x265  »  KryminalneRozmiar:6.19 GB
Język:Lektor PL  Lektor PL------------------
Obserwuj:OBSERWUJ TORRENTAStaty:UAKTUALNIJ TRACKER
Download: Pobierz TorrentRaport:RAPORTUJ TORRENTA




https://www.imdb.com/title/tt0085121/
https://www.filmweb.pl/film/10+minut+do+p%C3%B3%C5%82nocy-1983-94748

Do odtworzenia filmu WYMAGANY odpowiedni sprzęt (TV).

reżyseria: J. Lee Thompson
scenariusz: William Roberts
gatunek: Kryminał
produkcja: USA
premiera: 11-03-1983
muzyka: Robert O. Ragland
zdjęcia: Adam Greenberg
czas: 01:42:12



A LAPD detective is on the trail of a very handsome young man who had been seducing and
slashing many young women to death.

Sąd uznaje psychopatycznego mordercę kobiet za niewinnego. Zwolniony dyscyplinarnie policjant
Leo Kessler postanawia zająć się nim osobiście.








Charles Bronson, Lisa Eilbacher, Andrew Stevens



10 to Midnight (1983)-alE13.mkv
Format : Matroska
Format version : Version 4 / Version 2
File size : 5.97 GiB
Duration : 1h 42mn
Overall bit rate : 8 364 Kbps
Movie name : 10 to Midnight (1983)-alE13
Encoded date : UTC 2015-11-08 21:16:52
Writing application : mkvmerge v8.1.0 ('Psychedelic Postcard') 64bit
Writing library : libebml v1.3.1 + libmatroska v1.4.2
DURATION : 01:39:46.450000000
NUMBER_OF_FRAMES : 961
NUMBER_OF_BYTES : 41099
_STATISTICS_WRITING_APP : mkvmerge v8.1.0 ('Psychedelic Postcard') 64bit
_STATISTICS_WRITING_DATE_UT : 2015-11-08 21:16:52
_STATISTICS_TAGS : BPS DURATION NUMBER_OF_FRAMES NUMBER_OF_BYTES

Video
ID : 1
Format : HEVC
Format/INFO : High Efficiency Video Coding
Codec ID : V_MPEGH/ISO/HEVC
Duration : 1h 42mn
Bit rate : 7 174 Kbps
Width : 1 920 pixels
Height : 1 040 pixels
Display aspect ratio : 1.85:1
Frame rate mode : Constant
Frame rate : 23.976 fps
Bits/(Pixel*Frame) : 0.150
Stream size : 5.12 GiB (86%)
Title : 10 to Midnight (1983)-alE13
Default : Yes
Forced : No
DURATION : 01:41:55.456000000
NUMBER_OF_FRAMES : 191108
NUMBER_OF_BYTES : 195694592
_STATISTICS_WRITING_APP : mkvmerge v8.1.0 ('Psychedelic Postcard') 64bit
_STATISTICS_WRITING_DATE_UT : 2015-11-08 21:16:52
_STATISTICS_TAGS : BPS DURATION NUMBER_OF_FRAMES NUMBER_OF_BYTES

Audio #1
ID : 2
Format : AC-3
Format/INFO : Audio Coding 3
Mode extension : CM (complete main)
Format settings, Endianness : Big
Codec ID : A_AC3
Duration : 1h 42mn
Bit rate mode : Constant
Bit rate : 256 Kbps
Channel(s) : 2 channels
Channel positions : Front: L R
Sampling rate : 48.0 KHz
Compression mode : Lossy
Delay relative to video : 20ms
Stream size : 187 MiB (3%)
Title : 10 to Midnight (1983)-alE13
Language : Polish
Default : Yes
Forced : No

Audio #2
ID : 3
Format : DTS
Format/INFO : Digital Theater Systems
Mode : 16
Format settings, Endianness : Big
Codec ID : A_DTS
Duration : 1h 42mn
Bit rate mode : Constant
Bit rate : 768 Kbps
Channel(s) : 1 channel
Channel positions : Front: C
Sampling rate : 48.0 KHz
Bit depth : 24 bits
Compression mode : Lossy
Delay relative to video : 83ms
Stream size : 561 MiB (9%)
Title : 10 to Midnight (1983)-alE13_DTS_Mono
Language : English
Default : No
Forced : No

Text #1
ID : 4
Format : UTF-8
Codec ID : S_TEXT/UTF8
Codec ID/INFO : UTF-8 Plain Text
Title : 10 to Midnight (1983)-alE13
Language : Polish
Default : Yes
Forced : No

Text #2
ID : 5
Format : UTF-8
Codec ID : S_TEXT/UTF8
Codec ID/INFO : UTF-8 Plain Text
Title : 10 to Midnight (1983)-alE13
Language : English
Default : No
Forced : No

Menu
00:00:00.000 : : Chapter 1
00:04:53.768 : : Chapter 2
00:07:38.016 : : Chapter 3
00:12:35.313 : : Chapter 4
00:17:47.249 : : Chapter 5
00:21:03.571 : : Chapter 6
00:25:49.898 : : Chapter 7
00:29:59.689 : : Chapter 8
00:35:12.627 : : Chapter 9
00:40:15.596 : : Chapter 10
00:43:38.466 : : Chapter 11
00:47:42.001 : : Chapter 12
00:51:20.928 : : Chapter 13
00:57:17.075 : : Chapter 14
01:00:10.123 : : Chapter 15
01:06:03.893 : : Chapter 16
01:09:21.174 : : Chapter 17
01:13:57.700 : : Chapter 18
01:18:13.664 : : Chapter 19
01:22:24.623 : : Chapter 20
01:26:47.552 : : Chapter 21
01:31:41.763 : : Chapter 22
01:36:09.280 : : Chapter 23
01:40:01.387 : : Chapter 24


====================================================

PODOBNE TORRENTY
10 minut do północy/10 to Midnight (1983)[BRRip 1080p x264 by alE13 AC3/DTS] [Lektor & Sub PL/ENG] [ENG] 10 minut do północy - 10 to Midnight *1983* [720p.BRRip.XviD-NoNaNo] [Lektor PL] 10 minut do północy - 10 to Midnight (1983) [DVDRip.XviD] [AC3-RedCoders] [Lektor PL] Kilka minut po północy / Minutes Past Midnight (2016) [1080p] [WEB-DL] [x264] [AC3-KRT] [Napisy PL] Kilka minut po północy - Minutes Past Midnight *2016* [WEB-DL] [XviD-KRT] [Napisy PL] Kilka minut po północy - Minutes Past Midnight (2016) [WEB-DL] [XviD] [MPEG-KRT] [Napisy PL] [H-1]
Szczegóły torrenta
TRACKER
Tracker Podstawowy: http://tracker.aletorrenty.pl:2710/announce

Multitrackery:

http://tracker.aletorrenty.pl:2710/announce
http://tracker.filetracker.pl:8089/announce
http://tracker.torrenty.org:6969/announce
http://tracker.ex.ua/announce
udp://inferno.demonoid.ooo:3392/announce
http://torrent.gresille.org/announce.php
udp://tracker.aletorrenty.pl:2710/announce
udp://tracker.openbittorrent.com:80/announce
udp://tracker.leechers-paradise.org:6969/announce

UAKTUALNIENIE
08/02/2017 14:42:02 (Jeśeli nie widac seeda kliknij na [uaktualnij] by odswieżyć statystyki).
[Lub sprawdź programem do pobierania torrentów, ponieważ niektóre trackery nie wyświetlają statystyk]
17 pliki
 
KOMENTARZE


Brak komentarzy...

DODAJ KOMENTARZ

Zaloguj się aby dodawać komentarze !!!



Wstecz








WRÓĆ NA GÓRĘ