FileTracker.PL - Darmowe polskie torrenty

Witaj drogi Towarzyszu!, jeżeli widzisz ten dymek to znaczy że nie jesteś jeszcze zarejestrowany/zalogowany. Kliknij by się zarejestrować . Rejestracja zajmie mniej niż 30 sekund, a dzięki niej zyskasz możliwość pobierania, komentowania oraz dodawania torrentów !
User:  Hasło:     



Kategorie


Detale Torrenta


Flic Story (1975)[BRRip.1080p.x265-HEVC by alE13.AC3/DTS] [Lektor i Napisy PL/ENG] [Fre]

S: 13L: 20P: 45
Dodał: alE13 Tracker:
Kondycja:Dodane:2015-10-28 07:10:48
Kategoria:Filmy UHD4K / x265  »  KryminalneRozmiar:7.40 GB
Język:Lektor PL  Lektor PL------------------
Obserwuj:OBSERWUJ TORRENTAStaty:UAKTUALNIJ TRACKER
Download: Pobierz TorrentRaport:RAPORTUJ TORRENTA




https://www.filmweb.pl/film/Flic+Story-1975-36933
https://www.imdb.com/title/tt0072996/

Do odtworzenia filmu WYMAGANY odpowiedni sprzęt (TV).

reżyseria: Jacques Deray
scenariusz: Jacques Deray,Alphonse Boudard
gatunek: Kryminał,Thriller
produkcja: Francja,Włochy
premiera: 01-10-1975
muzyka: Claude Bolling
zdjęcia: Jean-Jacques Tarbes
na podstawie: Roger Borniche (autobiografia)
czas: 01:51:41



This movie depicts the authentic story of the hunt for the dangerous criminal Emile Buisson, who
escaped from prison in 1947. During three years Buisson manages to hide from detective Borniche
by repeatedly killing his INFOrmants. When he's finally caught with help from the little criminal
Paul, Buisson will have committed more than 100 robberies and killed 30 people.

Mroczny dramat policyjny, odtwarzający z dokumentalną skrupulatnością autentyczne wydarzenia,
które miały miejsce we Francji, w latach 1947-1949. Emile Bouisson (19-08-1902 – 28-02-1956)
(Jean-Louis Trintignant), 45-letni przestępca skazany dożywotnio na katorgę, ucieka ze szpitala
psychiatrycznego, gdzie przebywał na obserwacji. To człowiek niebezpieczny, zabija bez skrupułów.
Inspektor Roger Broniche (07-96-1919 (96 lat), (Alain Delon), który prowadzi sprawę ma już za sobie
wiele trudnych zadań, jest ambitny, chce osiągnąć wyższe stanowisko. Robi wszystko, aby schwytać
przestępcę. Ale Bouisson ma wspólników, broń i odwagę, cechującą tych, którzy nie mają nic
do stracenia.








Alain Delon, Jean-Louis Trintignant, Renato Salvatori



Flic Story (1975)-alE13.mkv
Format : Matroska
Format version : Version 4 / Version 2
File size : 7.27 GiB
Duration : 1h 51mn
Overall bit rate : 9 311 Kbps
Movie name : Flic Story (1975)-alE13
Encoded date : UTC 2015-10-27 17:59:13
Writing application : mkvmerge v8.1.0 ('Psychedelic Postcard') 64bit
Writing library : libebml v1.3.1 + libmatroska v1.4.2
DURATION : 01:49:24.148000000
NUMBER_OF_FRAMES : 1013
NUMBER_OF_BYTES : 28689
_STATISTICS_WRITING_APP : mkvmerge v8.1.0 ('Psychedelic Postcard') 64bit
_STATISTICS_WRITING_DATE_UT : 2015-10-27 17:59:13
_STATISTICS_TAGS : BPS DURATION NUMBER_OF_FRAMES NUMBER_OF_BYTES

Video
ID : 1
Format : HEVC
Format/INFO : High Efficiency Video Coding
Codec ID : V_MPEGH/ISO/HEVC
Duration : 1h 51mn
Bit rate : 8 102 Kbps
Width : 1 808 pixels
Height : 1 072 pixels
Display aspect ratio : 5:3
Frame rate mode : Constant
Frame rate : 23.976 fps
Bits/(Pixel*Frame) : 0.174
Stream size : 6.33 GiB (87%)
Title : Flic Story (1975)-alE13
Default : Yes
Forced : No

Audio #1
ID : 2
Format : AC-3
Format/INFO : Audio Coding 3
Mode extension : CM (complete main)
Format settings, Endianness : Big
Codec ID : A_AC3
Duration : 1h 51mn
Bit rate mode : Constant
Bit rate : 256 Kbps
Channel(s) : 2 channels
Channel positions : Front: L R
Sampling rate : 44.1 KHz
Compression mode : Lossy
Delay relative to video : 12s 845ms
Stream size : 205 MiB (3%)
Title : Flic Story (1975)-alE13
Language : Polish
Default : Yes
Forced : No

Audio #2
ID : 3
Format : DTS
Format/INFO : Digital Theater Systems
Mode : 16
Format settings, Endianness : Big
Codec ID : A_DTS
Duration : 1h 51mn
Bit rate mode : Constant
Bit rate : 768 Kbps
Channel(s) : 2 channels
Channel positions : Front: L R
Sampling rate : 48.0 KHz
Bit depth : 16 bits
Compression mode : Lossy
Stream size : 614 MiB (8%)
Title : Flic Story (1975)-alE13_Original
Language : French
Default : No
Forced : No

Text #1
ID : 4
Format : UTF-8
Codec ID : S_TEXT/UTF8
Codec ID/INFO : UTF-8 Plain Text
Title : Flic Story (1975)-alE13
Language : Polish
Default : Yes
Forced : No

Text #2
ID : 5
Format : UTF-8
Codec ID : S_TEXT/UTF8
Codec ID/INFO : UTF-8 Plain Text
Title : Flic Story (1975)-alE13
Language : English
Default : No
Forced : No

====================================================

PODOBNE TORRENTY
Flic Story (1975) [BRRip.XviD-marjos83] [Lektor PL] Kwaidan, czyli opowieści niesamowite-Kwaidan (1964)-alE13[BRRip.1080p.x265-HEVC by alE13.AC3] [Lektor i Napisy ENG] [ENG] Air America (1990)[BRRip.1080p.x265-HEVC by alE13.AC3/DTS] [Lektor i napisy PL/ENG] [ENG] Bandolero! (1968)[BRRip.1080p.x265-HEVC-by alE13.AC3] [Lektor i Napisy PL/ENGl] [ENG] Odwet-RevENGe (1990) [BRRip.1080p.x265-HEVC-by alE13.DTS/AC3] [Lektor i Napisy PL/Ger] [ENG] Bestseller-Best Seller (1987)[BRRip.1080p.x265-HEVC by alE13.AC3/DTS] [Lektor i Napisy PL/ENG] [ENG]
Szczegóły torrenta
TRACKER
Tracker Podstawowy: http://tracker.aletorrenty.pl:2710/announce

Multitrackery:

http://tracker.aletorrenty.pl:2710/announce
http://tracker.filetracker.pl:8089/announce
http://tracker.torrenty.org:6969/announce
http://tracker.ex.ua/announce
http://torrent.gresille.org/announce.php
udp://tracker.aletorrenty.pl:2710/announce
udp://tracker.openbittorrent.com:80/announce
udp://tracker.leechers-paradise.org:6969/announce
udp://inferno.demonoid.ph:3389/announce
udp://tracker.ccc.de:80/announce

UAKTUALNIENIE
12/12/2019 16:47:50 (Jeśeli nie widac seeda kliknij na [uaktualnij] by odswieżyć statystyki).
[Lub sprawdź programem do pobierania torrentów, ponieważ niektóre trackery nie wyświetlają statystyk]
14 pliki
 
KOMENTARZE


Brak komentarzy...

DODAJ KOMENTARZ

Zaloguj się aby dodawać komentarze !!!



Wstecz








WRÓĆ NA GÓRĘ