FileTracker.PL - Darmowe polskie torrenty

Witaj drogi Towarzyszu!, jeżeli widzisz ten dymek to znaczy że nie jesteś jeszcze zarejestrowany/zalogowany. Kliknij by się zarejestrować . Rejestracja zajmie mniej niż 30 sekund, a dzięki niej zyskasz możliwość pobierania, komentowania oraz dodawania torrentów !
User:  Hasło:     



Kategorie


Detale Torrenta


Prawdziwe kłamstwa-True Lies (1994)[BRRip.1080p.x265-HEVC by alE13.AC3/DTS] [Lektor i Napisy PL/ENG] [ENG]

S: 4L: 5P: 104
Dodał: alE13 Tracker:
Kondycja:Dodane:2015-10-26 05:28:09
Kategoria:Filmy UHD4K / x265  »  SensacyjneRozmiar:6.15 GB
Język:Lektor PL  Lektor PL------------------
Obserwuj:OBSERWUJ TORRENTAStaty:UAKTUALNIJ TRACKER
Download: Pobierz TorrentRaport:RAPORTUJ TORRENTA




https://www.filmweb.pl/film/Prawdziwe+k%C5%82amstwa-1994-991
https://www.imdb.com/title/tt0111503/

Do odtworzenia filmu WYMAGANY odpowiedni sprzęt (TV).

reżyseria: James Cameron
scenariusz: James Cameron,Claude Zidi,Didier Kaminka,Simon Michaël
gatunek: Komedia,Sensacyjny
produkcja: USA
premiera: 15-06-1994
muzyka: Robin Gibb,Frederick Loewe
zdjęcia: Russell Carpenter
czas: 02:21:58



A fearless, globe-trotting, terrorist-battling secret agent has his life turned upside down when he discovers
his wife might be having an affair with a used car salesman.

Bohaterem filmu jest utalentowany, lecz lekkomyślny tajny agent o imieniu Harry (Arnold Schwarzenegger), który
według swojej żony sprzedaje komputery. Gdy mężczyzna zaczyna podejrzewać kobietę o zdradę, sprawy wymykają się
spod kontroli. Podejrzliwy agent wciąga swoją małżonkę w tajemniczą grę, w wyniku której oboje zostają porwani
przez arabskich terrorystów, a urocza sprzedawczyni antyków chce go za wszelką cenę zlikwidować.








Arnold Schwarzenegger, Jamie Lee Curtis, Tia Carrere



True Lies (1994)-alE13.mkv
Format : Matroska
Format version : Version 4 / Version 2
File size : 5.94 GiB
Duration : 2h 21mn
Overall bit rate : 5 990 Kbps
Movie name : True Lies (1994)-alE13
Encoded date : UTC 2015-10-26 04:05:47
Writing application : mkvmerge v8.1.0 ('Psychedelic Postcard') 64bit
Writing library : libebml v1.3.1 + libmatroska v1.4.2
DURATION : 02:16:25.145000000
NUMBER_OF_FRAMES : 1286
NUMBER_OF_BYTES : 45429
_STATISTICS_WRITING_APP : mkvmerge v8.1.0 ('Psychedelic Postcard') 64bit
_STATISTICS_WRITING_DATE_UT : 2015-10-26 04:05:47
_STATISTICS_TAGS : BPS DURATION NUMBER_OF_FRAMES NUMBER_OF_BYTES

Video
ID : 1
Format : HEVC
Format/INFO : High Efficiency Video Coding
Format profile : Main@L4@Main
Codec ID : V_MPEGH/ISO/HEVC
Duration : 2h 21mn
Bit rate : 3 721 Kbps
Width : 1 920 pixels
Height : 824 pixels
Display aspect ratio : 2.35:1
Frame rate mode : Constant
Frame rate : 23.976 fps
Color space : YUV
Chroma subsampling : 4:2:0
Bit depth : 8 bits
Bits/(Pixel*Frame) : 0.098
Stream size : 3.69 GiB (62%)
Title : True Lies (1994)-alE13
Default : Yes
Forced : No

Audio #1
ID : 2
Format : DTS
Format/INFO : Digital Theater Systems
Mode : 16
Format settings, Endianness : Big
Codec ID : A_DTS
Duration : 2h 21mn
Bit rate mode : Constant
Bit rate : 1 510 Kbps
Channel(s) : 6 channels
Channel positions : Front: L C R, Side: L R, LFE
Sampling rate : 48.0 KHz
Bit depth : 24 bits
Compression mode : Lossy
Stream size : 1.50 GiB (25%)
Title : True Lies (1994)-alE13_DTS.5.1.1509_kbps
Language : English
Default : No
Forced : No

Audio #2
ID : 4
Format : AC-3
Format/INFO : Audio Coding 3
Mode extension : CM (complete main)
Format settings, Endianness : Big
Codec ID : A_AC3
Duration : 2h 21mn
Bit rate mode : Constant
Bit rate : 640 Kbps
Channel(s) : 6 channels
Channel positions : Front: L C R, Side: L R, LFE
Sampling rate : 44.1 KHz
Compression mode : Lossy
Delay relative to video : 2s 150ms
Stream size : 650 MiB (11%)
Title : True Lies (1994)-alE13
Language : Polish
Default : Yes
Forced : No

Text #1
ID : 3
Format : UTF-8
Codec ID : S_TEXT/UTF8
Codec ID/INFO : UTF-8 Plain Text
Title : True Lies (1994)-alE13
Language : English
Default : No
Forced : No

Text #2
ID : 5
Format : UTF-8
Codec ID : S_TEXT/UTF8
Codec ID/INFO : UTF-8 Plain Text
Title : True Lies (1994)-alE13
Language : Polish
Default : Yes
Forced : No

Menu
00:00:00.000 : en: Main Titles
00:01:54.047 : en: Lake Chapeau
00:09:44.150 : en: Tango
00:12:05.358 : en: Here's My Invitation
00:15:11.177 : en: That's It for Mr. Renquist
00:16:58.918 : en: The Tasker Family
00:19:41.280 : en: Not Just a River in Egypt
00:21:08.434 : en: Omega Sector/You Know Harry
00:24:11.617 : en: The Renquist Front
00:27:51.970 : en: The Problem with Terrorists
00:30:16.915 : en: Bathroom Fight
00:32:43.695 : en: My Horse Is Getting Tired
00:41:29.320 : en: A Great Birthday
00:43:19.897 : en: Welcom to the Club
00:46:33.357 : en: A Little Excitement
00:50:48.679 : en: Simon's "Op"
00:53:20.364 : en: One Born Every Minute
00:57:25.709 : en: Seek Help, Harry
00:59:32.836 : en: A Misappropriation of Sector Resources
01:01:02.159 : en: Safe House
01:05:43.139 : en: Helen Looking in the Glass
01:13:56.198 : en: The End of Carlos the Jackal
01:15:50.813 : en: An Envelope Marked Doris
01:19:52.454 : en: The Suite at the Marquis
01:27:52.534 : en: Tasker, Not Renquist
01:29:41.676 : en: The Four Horsemen
01:35:43.838 : en: Truth Agent
01:41:04.325 : en: I Married Rambo
01:42:58.572 : en: Uh-Oh
01:45:04.198 : en: Just Us
01:51:03.190 : en: I Thought This Looked Like Your Work
01:52:08.522 : en: Bright Boy Alert
01:54:33.900 : en: Time to Kick Ass
01:55:56.817 : en: Limo Rescue
02:00:24.117 : en: Nuclear Kiss
02:01:44.097 : en: Borrowing a Harrier
02:04:07.807 : en: Dana the Hostage/a Man Inside
02:05:22.982 : en: Who's Taken the Key?
02:07:15.428 : en: On the Crane
02:08:09.048 : en: A Crimson Jihad
02:08:53.092 : en: Dad?!
02:11:59.645 : en: Fired
02:14:45.477 : en: Boris and Doris
02:17:26.872 : en: End Titles

====================================================

PODOBNE TORRENTY
Prawdziwe Kłamstwa - True Lies *1994* [DVDRip.XviD] [Lektor PL] Prawdziwe kłamstwa - True Lies (1994) [AC3.DVDRip.XviD-4CT] [Lektor PL] Prawdziwe kłamstwa - True Lies (1994) [AC3] [DVDRip.XviD] [Lektor PL] Prawdziwe kłamstwa - True Lies (1994) [DVDRip] .[XviD-GR4PE]] [Lektor PL] [D.T.A 26] Prawdziwe kłamstwa - True Lies (1994) [DVDRip.DivX] [Lektor PL] [patriota] Prawdziwe kłamstwa / True Lies (1994) [720p] [DTRip] [XviD] [AC3-LTN] [Lektor PL]
Szczegóły torrenta
TRACKER
Tracker Podstawowy: http://tracker.aletorrenty.pl:2710/announce

Multitrackery:

http://tracker.aletorrenty.pl:2710/announce
http://tracker.filetracker.pl:8089/announce
http://tracker.torrenty.org:6969/announce
http://tracker.ex.ua/announce
http://torrent.gresille.org/announce.php
udp://tracker.aletorrenty.pl:2710/announce
udp://tracker.openbittorrent.com:80/announce
udp://tracker.leechers-paradise.org:6969/announce
udp://inferno.demonoid.ph:3389/announce
udp://tracker.ccc.de:80/announce

UAKTUALNIENIE
13/10/2020 12:13:16 (Jeśeli nie widac seeda kliknij na [uaktualnij] by odswieżyć statystyki).
[Lub sprawdź programem do pobierania torrentów, ponieważ niektóre trackery nie wyświetlają statystyk]
15 pliki
 
KOMENTARZE


Brak komentarzy...

DODAJ KOMENTARZ

Zaloguj się aby dodawać komentarze !!!



Wstecz








WRÓĆ NA GÓRĘ