FileTracker.PL - Darmowe polskie torrenty

Witaj drogi Towarzyszu!, jeżeli widzisz ten dymek to znaczy że nie jesteś jeszcze zarejestrowany/zalogowany. Kliknij by się zarejestrować . Rejestracja zajmie mniej niż 30 sekund, a dzięki niej zyskasz możliwość pobierania, komentowania oraz dodawania torrentów !
User:  Hasło:     



Kategorie


Detale Torrenta


Minionki 3D - Minions *2015* [1080p.3D.Half.Over-Under.DTS 5.1.AC3.BluRay.x264-SONDA] [Dubbing i Napisy PL] [ENG] [AT-TEAM]

S: 52L: 73P: 62
Dodał: Tracker:
Kondycja:Dodane:2015-10-24 15:51:53
Kategoria:Filmy 3D / SBS  »  Animowane / BajkiRozmiar:9.38 GB
Język:Dubbing PL  Dubbing PL------------------
Obserwuj:OBSERWUJ TORRENTAStaty:UAKTUALNIJ TRACKER
Download: Pobierz TorrentRaport:RAPORTUJ TORRENTA


Film w wersji 3D Over-Under.
Do odtworzenia filmu WYMAGANY odpowiedni sprzęt (TV 3D)
=========================================

gatunek: Animacja,Familijny,Komedia
produkcja: USA
premiera: 26 czerwca 2015 (Polska) 11 czerwca 2015 (świat)
reżyseria: Kyle Balda,Pierre Coffin
scenariusz: Brian Lynch

https://www.imdb.com/title/tt2293640/

OBSADA:

Anna Gajewska ... Scarlett O’Haracz
Andrzej Blumenfeld ... Narrator
Piotr Bajtlik ... Herb O’Haracz
Barbara Melzer ... Tina
Janusz Wituch ... Walter
Katarzyna Kwiatkowska ... Królowa

OPIS

Film zabierze nas w przeszłość, dzięki czemu poznamy historię Minionków - od zarania dziejów do czasu, gdy w ich życiu pojawił się Gru. Minionki zawsze potrzebowały złego przywódcy, służyły już T. Rexowi, Czyngis-chanowi, Napoleonowi, a nawet hrabiemu Drakuli, tyle tylko, że… wszystkich ich przypadkowo zgładziły. Teraz, kiedy nie mają komu służyć, są pogrążone w rozpaczy. Minionki Kevin, Bob i Stuart desperacko poszukując zła, przemierzają cały świat. Po drodze detronizują królową Elżbietę II i wplątują się w najdziwniejsze przygody. Na Florydzie, podczas tajemnej konwencji złoczyńców poznają Scarlett Overkill (w wersji oryginalnej głosu użyczyła jej Sandra Bullock), pierwszy w historii tak czarny kobiecy charakter. W niej cała nadzieja.

Storyline:

The story of Universal Pictures and Illumination Entertainment's Minions begins at the dawn of time. Starting as single-celled yellow organisms, Minions evolve through the ages, perpetually serving the most despicable of masters. Continuously unsuccessful at keeping these masters - from T. rex to Napoleon - the Minions find themselves without someone to serve and fall into a deep depression. But one Minion named Kevin has a plan, and he - alongside teen-age rebel Stuart and lovable little Bob - ventures out into the world to find a new evil boss for his brethren to follow. The trio embarks upon a thrilling journey that ultimately leads them to their next potential master, Scarlet Overkill (Academy Award winner Sandra Bullock), the world's first supervillainess ever. They travel from frigid Antarctica to 1960s New York City, ending in modern London, where they must face their biggest challenge to date: saving all of Minionkind...from annihilation. Featuring a sound-track of hit music ...

Screenshot:







General
Format : Matroska
Format version : Version 2
File size : 9.38 GiB
Duration : 1h 30mn
Overall bit rate : 14.8 Mbps
Movie name : Minions_3D.2015.PL.BDRip.1080p Rip by Sonda [AT-Team]
Encoded date : UTC 2015-10-24 13:27:40
Writing application : mkvmerge v5.7.0 ('The Whirlwind') built on Jul 8 2012 20:08:51
Writing library : libebml v1.2.3 + libmatroska v1.3.0

Video
ID : 1
Format : AVC
Format/INFO : Advanced Video Codec
Format profile : High@L4.1
Format settings, CABAC : Yes
Format settings, ReFrames : 4 frames
Codec ID : V_MPEG4/ISO/AVC
Duration : 1h 30mn
Bit rate : 12.0 Mbps
Width : 1 920 pixels
Height : 1 080 pixels
Display aspect ratio : 16:9 (1.85:1)
Frame rate mode : Constant
Frame rate : 23.976 fps
Color space : YUV
Chroma subsampling : 4:2:0
Bit depth : 8 bits
Scan type : Progressive
Bits/(Pixel*Frame) : 0.241
Stream size : 7.42 GiB (79%)
Title : Rip by Sonda
Writing library : x264 core
Encoding settings : cabac=1 / ref=4 / rc=abr
Default : Yes
Forced : No

Audio #1
ID : 2
Format : AC-3
Format/INFO : Audio Coding 3
Mode extension : CM (complete main)
Format settings, Endianness : Big
Codec ID : A_AC3
Duration : 1h 30mn
Bit rate mode : Constant
Bit rate : 640 Kbps
Channel count : 6 channels
Channel positions : Front: L C R, Side: L R, LFE
Sampling rate : 48.0 KHz
Bit depth : 16 bits
Compression mode : Lossy
Stream size : 416 MiB (4%)
Title : AC3 5.1 Dubbing PL
Language : Polish
Default : Yes
Forced : Yes

Audio #2
ID : 3
Format : AC-3
Format/INFO : Audio Coding 3
Mode extension : CM (complete main)
Format settings, Endianness : Big
Codec ID : A_AC3
Duration : 1h 30mn
Bit rate mode : Constant
Bit rate : 640 Kbps
Channel count : 6 channels
Channel positions : Front: L C R, Side: L R, LFE
Sampling rate : 48.0 KHz
Bit depth : 16 bits
Compression mode : Lossy
Stream size : 416 MiB (4%)
Title : AC3 5.1 ENG
Language : English
Default : No
Forced : No

Audio #3
ID : 4
Format : DTS
Format/INFO : Digital Theater Systems
Mode : 16
Format settings, Endianness : Big
Codec ID : A_DTS
Duration : 1h 30mn
Bit rate mode : Constant
Bit rate : 1 510 Kbps
Channel count : 6 channels
Channel positions : Front: L C R, Side: L R, LFE
Sampling rate : 48.0 KHz
Bit depth : 24 bits
Compression mode : Lossy
Stream size : 982 MiB (10%)
Title : DTS 5.1 ENG
Language : English
Default : No
Forced : No

Text
ID : 5
Format : PGS
Muxing mode : zlib
Codec ID : S_HDMV/PGS
Codec ID/INFO : The same subtitle format used on BDs/HD-DVDs
Title : Napisy 3D
Language : Polish
Default : No
Forced : No

Source:
A/V-Minions (2015) 1080p [2D/3D] BD-Remux-HDCLUB
DTS 5.1-NVEE
Dubbing PL - BD

====================================================

PODOBNE TORRENTY
Minionki 3D - Minions *2015* [mini-HD.1080p.3D.Half.Over-Under.AC3.BluRay.x264-SONDA] [Dubbing PL] [AT-TEAM] Minionki 3D - Minions *2015* [1080p.3D.Half.Over-Under.AC3 5.1.BluRay.x264-LEON 345] [Dubbing i napisy PL] Minionki 3D - Minions *2015* (48FPS)[1080p.3D.Half.Over-Under.TrueHD.7 1.Atmos.BluRay.x264-LEON 345] [Dubbing i napisy PL] Ant-Man 3D *2015* [1080p.3D.Half.Over-Under.DTS 5.1.AC3.BluRay.x264-SONDA] [Dubbing i Napisy PL] [ENG] [AT-TEAM] Ant-Man 3D *2015* [60FPS.1080p.3D.Half.Over-Under.DTS-HD MA 7.1.AC3.BluRay.x264-SONDA] [Dubbing i Napisy PL] [ENG] [AT-TEAM] Gru, Dru i Minionki 3D - Despicable Me 3 *2017* (16:9) [mini-HD.1080p.3D.Half.Over-Under.DualAudio.AC3.BluRay.x264-SONDA] [Dubbing i Napisy PL] [ENG]
Szczegóły torrenta
TRACKER
Tracker Podstawowy: http://tracker.torrenty.org:6969/announce

Multitrackery:

http://tracker.torrenty.org:6969/announce
http://tracker.aletorrenty.pl:2710/announce
http://retracker.omsk.ru:2710/announce
http://tracker.filetracker.pl:8089/announce
http://www.tlv.cc:7777/announce
http://tracker.flashtorrents.org:6969/announce
http://tracker.pubt.net:2710/announce
udp://tracker.aletorrenty.pl:2710/announce
udp://torrent.gresille.org:80/announce
udp://9.rarbg.com:2710/announce
udp://9.rarbg.me:2710/announce
udp://coppersurfer.tk:6969/announce
udp://eddie4.nl:6969/announce
udp://glotorrents.com:6969/announce
udp://open.demonii.com:1337/announce
udp://shadowshq.eddie4.nl:6969/announce
udp://tracker.glotorrents.com:6969/announce
udp://tracker.leechers-paradise.org:6969/announce
udp://tracker.pomf.se:80/announce
udp://tracker4.piratux.com:6969/announce
udp://www.eddie4.nl:6969/announce
udp://open.demonii.com:1337

UAKTUALNIENIE
01/03/2020 09:08:11 (Jeśeli nie widac seeda kliknij na [uaktualnij] by odswieżyć statystyki).
[Lub sprawdź programem do pobierania torrentów, ponieważ niektóre trackery nie wyświetlają statystyk]
11 pliki
 
KOMENTARZE


Brak komentarzy...

DODAJ KOMENTARZ

Zaloguj się aby dodawać komentarze !!!



Wstecz








WRÓĆ NA GÓRĘ