FileTracker.PL - Darmowe polskie torrenty

Witaj drogi Towarzyszu!, jeżeli widzisz ten dymek to znaczy że nie jesteś jeszcze zarejestrowany/zalogowany. Kliknij by się zarejestrować . Rejestracja zajmie mniej niż 30 sekund, a dzięki niej zyskasz możliwość pobierania, komentowania oraz dodawania torrentów !
User:  Hasło:     



Kategorie


Detale Torrenta


Kryptonim Nina-Point of No Return (1993)[BRRip.1080p.x265-HEVC by alE13.AC3/DTS] [Lektor i Napisy PL/ENG] [ENG]

S: 1L: 0P: 44
Dodał: alE13 Tracker:
Kondycja:Dodane:2015-10-19 09:27:35
Kategoria:Filmy UHD4K / x265  »  SensacyjneRozmiar:6.10 GB
Język:Lektor PL  Lektor PL------------------
Obserwuj:OBSERWUJ TORRENTAStaty:UAKTUALNIJ TRACKER
Download: Pobierz TorrentRaport:RAPORTUJ TORRENTA




https://www.filmweb.pl/film/Kryptonim+Nina-1993-6897
https://www.imdb.com/title/tt0107843/

Do odtworzenia filmu WYMAGANY odpowiedni sprzęt (TV).

reżyseria: John Badham
scenariusz: Luc Besson, Robert Getchell
premiera: 1993-03-19
produkcja: USA
gatunek: Sensacyjny
muzyka: Harry Perry , Hans Zimmer
zdjęcia: Michael W. Watkins
czas: 01:48:20



Hardened criminal Maggie Hayward's consistent violence, even in police custody, ends in the execution chamber.
However, top-secret US government agent 'Bob' arranges a staged death, so Maggie can be elaborately trained as
a phantom killer and subdued into obedience. She gets a new cover identity as saleswoman Claudia Anne Doran.
She also gets a wonderful house-mate, building super J.P., a broad-minded, gentle photographer. The two fall
in love, and that complicates hit jobs. His good influence extends to breeding in her a conscience that places
love over business, unlike Bob's agency.

Młoda narkomanka Maggie, uczestnicząc w napadzie na aptekę, jako jedyna pozostaje przy życiu. W zamian
za uwolnienie od kary śmierci, wywiad proponuje jej pracę specjalnej agentki. Nie mając wyboru, dziewczyna
zgadza się. Od tego momentu Maggie zostaje poddana specjalnemu szkoleniu, które ma z niej uczynić doskonałą
maszynę do zabijania. Ze zwykłej dziewczyny z marginesu społecznego stopniowo przeistacza się w elegancką
kobietę o nienagannych manierach, posiadającą mieszkanie, dobrą posadę i własne konto w banku. Pewnego
dnia nadchodzi z organizacji rozkaz dokonania morderstwa.








Bridget Fonda, Gabriel Byrne, Dermot Mulroney



Point of No Return (1993)-alE13.mkv
Format : Matroska
Format version : Version 4 / Version 2
File size : 5.89 GiB
Duration : 1h 48mn
Overall bit rate : 7 785 Kbps
Movie name : Point of No Return (1993)-alE13
Encoded date : UTC 2015-10-19 06:16:45
Writing application : mkvmerge v8.1.0 ('Psychedelic Postcard') 64bit
Writing library : libebml v1.3.1 + libmatroska v1.4.2
DURATION : 01:47:49.045000000
NUMBER_OF_FRAMES : 1155
NUMBER_OF_BYTES : 35523
_STATISTICS_WRITING_APP : mkvmerge v8.1.0 ('Psychedelic Postcard') 64bit
_STATISTICS_WRITING_DATE_UT : 2015-10-19 06:16:45
_STATISTICS_TAGS : BPS DURATION NUMBER_OF_FRAMES NUMBER_OF_BYTES

Video
ID : 1
Format : HEVC
Format/INFO : High Efficiency Video Coding
Codec ID : V_MPEGH/ISO/HEVC
Duration : 1h 48mn
Bit rate : 6 348 Kbps
Width : 1 920 pixels
Height : 784 pixels
Display aspect ratio : 2.40:1
Frame rate mode : Constant
Frame rate : 23.976 fps
Bits/(Pixel*Frame) : 0.176
Stream size : 4.80 GiB (82%)
Title : Point of No Return (1993)-alE13
Default : Yes
Forced : No

Audio #1
ID : 2
Format : AC-3
Format/INFO : Audio Coding 3
Mode extension : CM (complete main)
Format settings, Endianness : Big
Codec ID : A_AC3
Duration : 1h 48mn
Bit rate mode : Constant
Bit rate : 256 Kbps
Channel(s) : 2 channels
Channel positions : Front: L R
Sampling rate : 44.1 KHz
Compression mode : Lossy
Stream size : 198 MiB (3%)
Title : Point of No Return (1993)-alE13
Language : Polish
Default : Yes
Forced : No

Audio #2
ID : 3
Format : DTS
Format/INFO : Digital Theater Systems
Mode : 16
Format settings, Endianness : Big
Codec ID : A_DTS
Duration : 1h 48mn
Bit rate mode : Constant
Bit rate : 1 026 Kbps
Channel(s) : 6 channels
Channel positions : Front: L C R, Side: L R, LFE
Sampling rate : 48.0 KHz
Bit depth : 16 bits
Compression mode : Lossy
Stream size : 795 MiB (13%)
Title : Point of No Return (1993)-alE13
Language : English
Default : No
Forced : No

Text #1
ID : 4
Format : UTF-8
Codec ID : S_TEXT/UTF8
Codec ID/INFO : UTF-8 Plain Text
Title : Point of No Return (1993)-alE13
Language : Polish
Default : Yes
Forced : No

Text #2
ID : 5
Format : UTF-8
Codec ID : S_TEXT/UTF8
Codec ID/INFO : UTF-8 Plain Text
Title : Point of No Return (1993)-alE13
Language : English
Default : No
Forced : No

====================================================

PODOBNE TORRENTY
Kryptonim Nina - Point Of No Return 1993 (1080p) (DTS) (Lektor i Napisy PL) Kryptonim Nina - Point of no Return (1993) [AC-3] [WEB-DL] [720p] [X264] [LEKTOR PL] Powrót-The Return (2003)[BRRip x265 HEVC by alE13 AC3/DTS[Lektor i Napisy PL/ENG] [Rus] Kwaidan, czyli opowieści niesamowite-Kwaidan (1964)-alE13[BRRip.1080p.x265-HEVC by alE13.AC3] [Lektor i Napisy ENG] [ENG] Air America (1990)[BRRip.1080p.x265-HEVC by alE13.AC3/DTS] [Lektor i napisy PL/ENG] [ENG] Bandolero! (1968)[BRRip.1080p.x265-HEVC-by alE13.AC3] [Lektor i Napisy PL/ENGl] [ENG]
Szczegóły torrenta
TRACKER
Tracker Podstawowy: http://tracker.filetracker.pl:8089/announce

Multitrackery:

http://tracker.filetracker.pl:8089/announce
http://torrent.gresille.org/announce.php
udp://exodus.desync.com:6969/announce
http://retracker.telecom.kz/announce
http://torrent.gresille.org/announce.php
http://torrent.gresille.org/announce.php
udp://inferno.demonoid.ph:3389/announce
http://retracker.telecom.kz/announce
http://announce.torrentsmd.com:8080/announce
http://tracker.filetracker.pl:8089/announce
http://tracker.torrenty.org:6969/announce
http://tracker.filetracker.pl:8089/announce
udp://tracker.aletorrenty.pl:2710/announce
http://torrent.gresille.org/announce
http://retracker.telecom.kz/announce.php
http://exodus.desync.com/announce
udp://open.demonii.com:1337/announce
udp://tracker.blackunicorn.xyz:6969/announce
udp://glotorrents.pw:6969/announce
udp://inferno.demonoid.ph:3389/announce
udp://tracker.ccc.de:80/announce

UAKTUALNIENIE
19/01/2019 14:32:38 (Jeśeli nie widac seeda kliknij na [uaktualnij] by odswieżyć statystyki).
[Lub sprawdź programem do pobierania torrentów, ponieważ niektóre trackery nie wyświetlają statystyk]
17 pliki
 
KOMENTARZE


Brak komentarzy...

DODAJ KOMENTARZ

Zaloguj się aby dodawać komentarze !!!



Wstecz








WRÓĆ NA GÓRĘ