FileTracker.PL - Darmowe polskie torrenty

Witaj drogi Towarzyszu!, jeżeli widzisz ten dymek to znaczy że nie jesteś jeszcze zarejestrowany/zalogowany. Kliknij by się zarejestrować . Rejestracja zajmie mniej niż 30 sekund, a dzięki niej zyskasz możliwość pobierania, komentowania oraz dodawania torrentów !
User:  Hasło:     



Kategorie


Detale Torrenta


Greenland  *2020* [1080p] [AMZN] [WEBRip] [DDP5.1.] [x264-NTG] [ENG] [zibi6248]

S: 0L: 0P: 186
Dodał: zibi6248 Tracker:
Kondycja:Dodane:2020-11-13 02:16:59
Kategoria:Filmy 720p / 1080p  »  KatastroficzneRozmiar:7.55 GB
Język:Wersja ENG  Wersja ENG------------------
Obserwuj:OBSERWUJ TORRENTAStaty:UAKTUALNIJ TRACKER
Download: Pobierz TorrentRaport:RAPORTUJ TORRENTA


Produkcja: USA
Gatunek: Thriller Katastroficzny
Premiera: 25 września 2020 (Polska)
Reżyseria: Ric Roman Waugh
Scenariusz: Chris Sparling
https://www.youtube.com/watch?v=xbkg5Ru3XT0



Naukowcy nie mają wątpliwości: Ziemia nie zdoła uniknąć zderzenia ze zbliżającą się do niej potężną kometą, a jego skutki będą katastrofalne. Wybitny inżynier John Garrity i jego rodzina są w grupie wybrańców, którym władze zaoferowały bezpieczne schronienie w położonym na odludziu tajnym bunkrze. Większość społeczeństwa nie otrzymuje takiej szansy. Podczas gdy fragmenty rozpadającej się komety niszczą miasta i zabijają tysiące ludzi, świat pogrąża się w chaosie. Wybuchają zamieszki, rozboje są na porządku dziennym, a służby tracą kontrolę nad sytuacją. W takich okolicznościach dotarcie na miejsce ewakuacji staje się śmiertelnie niebezpiecznym wyzwaniem. Moment decydującego uderzenia zbliża się nieubłaganie. John jest gotów na wszystko, by ocalić swoją żonę i kochanego syna. Najbliższe kilkanaście godzin zdecyduje o wszystkim.



★ Gerard Butler .... John Garrity
★ Morena Baccarin .... Allison Garrity
★ Roger Dale Floyd .... Nathan Garrity
★ Scott Glenn .... Dale
★ David Denman .... Ralph Vento
★ Hope Davis .... Judy Vento
★ Andrew Bachelor .... Colin
★ Gary Weeks .... Ed Pruitt



Video
ID : 1
Format : AVC
Format/INFO : Advanced Video Codec
Format profile : High@L4
Format settings : CABAC / 4 Ref Frames
Format settings, CABAC : Yes
Format settings, Reference frames : 4 frames
Codec ID : V_MPEG4/ISO/AVC
Duration : 1 h 59 min
Bit rate mode : Constant
Bit rate : 8 390 kb/s
Nominal bit rate : 10 000 kb/s
Width : 1 920 pixels
Height : 800 pixels
Display aspect ratio : 2.40:1
Frame rate mode : Constant
Frame rate : 23.976 (24000/1001) FPS
Color space : YUV
Chroma subsampling : 4:2:0
Bit depth : 8 bits
Scan type : Progressive
Bits/(Pixel*Frame) : 0.228
Stream size : 7.02 GiB (93%)
Default : Yes
Forced : No
Color range : Limited
Color primaries : BT.709
Transfer characteristics : BT.709
Matrix coefficients : BT.709

Audio
ID : 2
Format : E-AC-3
Format/INFO : Enhanced AC-3
Commercial name : Dolby Digital Plus
Codec ID : A_EAC3
Duration : 1 h 59 min
Bit rate mode : Constant
Bit rate : 640 kb/s
Channel(s) : 6 channels
Channel layout : L R C LFE Ls Rs
Sampling rate : 48.0 kHz
Frame rate : 31.250 FPS (1536 SPF)
Compression mode : Lossy
Stream size : 548 MiB (7%)
Language : English
Service kind : Complete Main
Default : Yes
Forced : No

Text #1
ID : 3
Format : UTF-8
Codec ID : S_TEXT/UTF8
Codec ID/INFO : UTF-8 Plain Text
Duration : 1 h 52 min
Bit rate : 70 b/s
Count of elements : 1758
Stream size : 58.3 KiB (0%)
Title : SDH
Language : English
Default : No
Forced : No

Text #2
ID : 4
Format : UTF-8
Codec ID : S_TEXT/UTF8
Codec ID/INFO : UTF-8 Plain Text
Duration : 1 h 52 min
Bit rate : 40 b/s
Count of elements : 918
Stream size : 33.6 KiB (0%)
Language : Dutch
Default : No
Forced : No

Menu
00:00:00.000 : en:Amazon Original
00:00:06.000 : en:Studio Logos
00:00:53.000 : en:Opening Credits
00:01:08.000 : en:Construction site
00:02:25.000 : en:Title Sequence
00:02:28.000 : en:An uncomfortable return home
00:06:06.000 : en:Father son time
00:09:05.000 : en:Birthday party prep
00:11:06.000 : en:Presidential alert
00:14:16.000 : en:Clark hits
00:18:59.000 : en:Tough decisions
00:22:42.000 : en:Driving to the base
00:26:40.000 : en:Trying to get on the plane
00:37:58.000 : en:Chaos at the base
00:42:30.000 : en:Looters
00:47:39.000 : en:Broken phone calls
00:50:19.000 : en:A ride up north
00:53:37.000 : en:Ralph has an idea
00:56:54.000 : en:Hazards on the road
01:03:29.000 : en:Lying to get on the base
01:07:03.000 : en:Searching for Nathan
01:11:38.000 : en:Reunited
01:19:42.000 : en:Making a plan
01:22:21.000 : en:Making amends
01:27:40.000 : en:Driving to Canada
01:34:19.000 : en:Arrival at the airport
01:41:15.000 : en:Arrival in Greenland
01:46:08.000 : en:Getting to the bunker | Flashes of life
01:51:06.000 : en:The next chapter
01:54:12.000 : en:End Credits




====================================================

PODOBNE TORRENTY
Greenland *2020* [720p] [AMZN] [WEBRip] [DDP5.1.] [x264-NTG] [ENG] [zibi6248] Echo Boomers *2020* [1080p] [AMZN] [WEBRip] [DDP5.1.] [x264-NTG] [Napisy PL] [zibi6248] Kraina Marzeń - Dreamland *2020* [1080p] [AMZN] [WEBRip] [DDP5.1.] [x264-CMRG] [Napisy PL] [zibi6248] Borat Subsequent Moviefilm *2020* [720p] [AMZN] [WEBRip] [DDP5.1.] [x264-NTG] [Napisy PL] [zibi6248] Downton.Abbey *2019* [1080p] [AMZN] [WEBRip] [DDP5.1] [x264-NTG] [Napisy PL] [zibi6248] Mortal *2020* [1080p] [AMZN] [WEB-DL] [DDP5.1.H.264-NTG] [NAPISY PL] [zibi6248]
Szczegóły torrenta
TRACKER
Tracker Podstawowy: http://tracker.trackerfix.com:80/announce

Multitrackery:

http://tracker.trackerfix.com:80/announce
udp://9.rarbg.me:2860/announce
udp://9.rarbg.to:2990/announce

UAKTUALNIENIE
15/11/2020 19:26:58 (Jeśeli nie widac seeda kliknij na [uaktualnij] by odswieżyć statystyki).
[Lub sprawdź programem do pobierania torrentów, ponieważ niektóre trackery nie wyświetlają statystyk]
2 pliki
 
KOMENTARZE


belmondo13/11/2020 15.05.05
chętnie bym obejrzał,gdyby
były napisy
Status użytkownika:   13/11/2020 15.05.05  TOP

DODAJ KOMENTARZ

Zaloguj się aby dodawać komentarze !!!



Wstecz








WRÓĆ NA GÓRĘ