FileTracker.PL - Darmowe polskie torrenty

Witaj drogi Towarzyszu!, jeżeli widzisz ten dymek to znaczy że nie jesteś jeszcze zarejestrowany/zalogowany. Kliknij by się zarejestrować . Rejestracja zajmie mniej niż 30 sekund, a dzięki niej zyskasz możliwość pobierania, komentowania oraz dodawania torrentów !
User:  Hasło:     



Kategorie


Detale Torrenta


Fargo S04E05 (The BirthPLace of Civilization) [720p HDTV.x264-CRiMSON] [ENG] [Sub: ENG]

S: 0L: 0P: 115
Dodał: SHOW Tracker:
Kondycja:Dodane:2020-10-19 21:44:26
Kategoria:Seriale  »  AkcjaRozmiar:1.44 GB
Język:Wersja ENG  Wersja ENG------------------
Obserwuj:OBSERWUJ TORRENTAStaty:UAKTUALNIJ TRACKER
Download: Pobierz TorrentRaport:RAPORTUJ TORRENTA


[INFO]
Gatunek: Dramat, Kryminał
Produkcja: USA, Premiera 4-go Sezonu 27.09.2020r. [Epizodów: 11]
Stacja telewizyjna: FX, HULU
Reżyseria: Scott Winant , Adam Bernstein
Scenariusz: Noah Hawley
https://www.filmweb.pl/serial/Fargo-2014-688850
https://fdb.pl/film/571255-fargo
https://www.imdb.com/title/tt2802850

[DESCRIPTION]
Akcja nowej odsłony ?Fargo? będzie się toczyć w latach 50. w Kansas City. W roli głównej zobaczymy Chrisa Rocka, który wcieli się w Loya Cannona, bossa afroamerykańskiego gangu. Aby utrzymać rozejm z szefem konkurującej, włoskiej mafii, bohater będzie musiał oddać przeciwnikowi swojego najmłodszego syna, Satchela (Rodney Jones). Ten zrewanżuje się, oddając Loyowi na wychowanie swojego syna o imieniu Zero (Jameson Braccioforte). Kiedy jednak jeden z bossów nieoczekiwanie umrze, sytuacja znacznie się skomplikuje.

[STAFF]
Oprócz Rocka, Jonesa i Braccioforte, w 4. sezonie ?Fargo? zobaczymy m.in. Tommasa Ragno, Jacka Hustona, Jasona Schwartzmana i Bena Whishawa. Showrunnerem serialu jest Noah Hawley.

[TECHNICAL_DATA]
==================-[CRiMSON PROUDLY PRESENTS ]-==================
Got something to offer..email us at weluvcrimson@protonmail.ch
Now looking for pd/hd cappers
Release: Fargo.S04E05.The.Birthplace.of.Civilization.720p.HDTV.x264-CRiMSON
Source: HDTV
Date:10.18.2020
Notes:
===============================-LW-===============================
******************************GROUP INFO***********************
A. Thanks for catching our Flaws and making us an even better

CRiM$ON
MediaINFO «
Video
ID : 3
Format : AVC
Format/INFO : Advanced Video Codec
Format profile : High@L4.1
Format settings : CABAC / 5 Ref Frames
Format settings, CABAC : Yes
Format settings, Reference frames : 5 frames
Codec ID : V_MPEG4/ISO/AVC
Duration : 58 min 16 s
Bit rate : 3 149 kb/s
Width : 1 280 pixels
Height : 640 pixels
Display aspect ratio : 2.000
Frame rate mode : Constant
Frame rate : 23.976 (24000/1001) FPS
Color space : YUV
Chroma subsampling : 4:2:0
Bit depth : 8 bits
Scan type : Progressive
Bits/(Pixel*Frame) : 0.160
Stream size : 1.28 GiB (89%)
Writing library : x264 core 161 r3018 db0d417
Encoding settings : cabac=1 / ref=5 / deblock=1:0:0 / analyse=0x3:0x113 / me=umh / subme=8 / psy=1 / psy_rd=1.00:0.15 / mixed_ref=1 / me_range=16 / chroma_me=1 / trellis=2 / 8x8dct=1 / cqm=0 / deadzone=21,11 / fast_pskip=1 / chroma_qp_offset=-3 / threads=20 / lookahead_threads=3 / sliced_threads=0 / nr=0 / decimate=1 / interlaced=0 / bluray_compat=0 / constrained_intra=0 / bframes=3 / b_pyramid=2 / b_adapt=2 / b_bias=0 / direct=3 / weightb=1 / open_gop=0 / weightp=2 / keyint=240 / keyint_min=23 / scenecut=40 / intra_refresh=0 / rc_lookahead=50 / rc=crf / mbtree=1 / crf=18.0 / qcomp=0.60 / qpmin=0 / qpmax=69 / qpstep=4 / vbv_maxrate=62500 / vbv_bufsize=78125 / crf_max=0.0 / nal_hrd=none / filler=0 / ip_ratio=1.40 / aq=1:1.00
Language : English
Default : Yes
Forced : No
Color range : Limited
Matrix coefficients : BT.709

Audio
ID : 2
Format : AC-3
Format/INFO : Audio Coding 3
Commercial name : Dolby Digital
Codec ID : A_AC3
Duration : 58 min 16 s
Bit rate mode : Constant
Bit rate : 384 kb/s
Channel(s) : 6 channels
Channel layout : L R C LFE Ls Rs
Sampling rate : 48.0 kHz
Frame rate : 31.250 FPS (1536 SPF)
Compression mode : Lossy
Delay relative to video : 25 ms
Stream size : 160 MiB (11%)
Service kind : Complete Main
Default : Yes
Forced : No

Text
ID : 1
Format : UTF-8
Codec ID : S_TEXT/UTF8
Codec ID/INFO : UTF-8 Plain Text
Duration : 56 min 34 s
Bit rate : 74 b/s
Count of elements : 904
Stream size : 30.7 KiB (0%)
Language : English
Default : No
Forced : No

[IMG_VIDEO]




====================================================

PODOBNE TORRENTY
Fargo S04E05 (The BirthPLace of Civilization) [HDTV.x264-CRiMSON] [ENG] [Sub: ENG] Fargo S04E03 (Raddoppiarlo) [720p HDTV.x264-CRiMSON] [ENG] [Sub: ENG] Fargo S04E04 (The Pretend War) [720p HDTV.x264-CRiMSON] [ENG] [Sub: ENG] Fargo S04E01 (Welcome to the Alternate Economy) [720p HDTV x264-CRiMSON] [ENG] [Sub: ENG] Fargo S04E02 (The Land of Taking and Killing) [720p HDTV x264-CRiMSON] [ENG] [Sub: ENG] Fargo S04E03 (Raddoppiarlo) [HDTV.x264-CRiMSON] [ENG] [Sub: ENG]
Szczegóły torrenta
TRACKER
Tracker Podstawowy: http://tracker.trackerfix.com:80/announce

Multitrackery:

http://tracker.trackerfix.com:80/announce
udp://9.rarbg.me:2970/announce
udp://9.rarbg.to:2740/announce

UAKTUALNIENIE
20/10/2020 07:28:04 (Jeśeli nie widac seeda kliknij na [uaktualnij] by odswieżyć statystyki).
[Lub sprawdź programem do pobierania torrentów, ponieważ niektóre trackery nie wyświetlają statystyk]
4 pliki
 
KOMENTARZE


Brak komentarzy...

DODAJ KOMENTARZ

Zaloguj się aby dodawać komentarze !!!



Wstecz








WRÓĆ NA GÓRĘ