FileTracker.PL - Darmowe polskie torrenty

Witaj drogi Towarzyszu!, jeżeli widzisz ten dymek to znaczy że nie jesteś jeszcze zarejestrowany/zalogowany. Kliknij by się zarejestrować . Rejestracja zajmie mniej niż 30 sekund, a dzięki niej zyskasz możliwość pobierania, komentowania oraz dodawania torrentów !
User:  Hasło:     



Kategorie


Detale Torrenta


Lucyfer - Lucifer [2016] [SEZON 2] [1080P] [WEB-DL]] [AC3.2.0.]H264-RALF]

S: 0L: 0P: 63
Dodał: Hi-Tech Tracker:
Kondycja:Dodane:2020-10-18 01:35:59
Kategoria:Seriale  »  Sci-Fi / FantasyRozmiar:30.72 GB
Język:Lektor PL  Lektor PL------------------
Obserwuj:OBSERWUJ TORRENTAStaty:UAKTUALNIJ TRACKER
Download: Pobierz TorrentRaport:RAPORTUJ TORRENTA
...( INFO )...

Tytuł:Lucifer - Lucyfer / Sezon 02 [2015] [Epizodów:18]
=================================
Produkcja: USA
Gatunek: Fantasy, Kryminał
Stacja telewizyjna: FOX
Data premiery serialu: 30 listopada 2015 r. - Świat
Muzyka: Marco Beltrami, Dennis Smith
Zdjęcia: Barry Donlevy, Christian Sebaldt

...( Opis )...

Lucyfer Morningstar (Tom Ellis) to Władca Piekieł, którego nudzi dotychczasowe życie. Postanawia więc porzucić swoją funkcję i przenieść się do Los Angeles, gdzie zostaje właścicielem luksusowego klubu nocnego. Gdy dochodzi do zabójstwa wschodzącej gwiazdy muzyki pop, postanawia użyć swoich nadprzyrodzonych mocy, aby pomóc schwytać mordercę. Wkrótce rozpoczyna pracę w policji i stara się karać ludzi za zbrodnie.

...( OBSADA )...

★ Tom Ellis .... Lucifer Morningstar
★ Rachael Harris .... Dr Linda Martin
★ Lesley-Ann Brandt .... Mazikeen "Maze"
★ Lauren German .... Chloe Decker
★ D.B. Woodside .... Amenadiel
★ Scarlett Estevez .... Trixie
★ Kevin Alejandro .... Dan Espinoza
★ Kevin Rankin .... Malcolm Graham

...( DANE TECH )...
General
Complete name : lucifer.s02e01.everythings.coming.up.lucifer.pl.1080p.web-dl.ac3.2.0.h264-ralf.mkv
Format : Matroska
Format version : Version 4
File size : 1.72 GiB
Duration : 43 min 55 s
Overall bit rate : 5 612 kb/s
Encoded date : UTC 2016-10-13 11:48:16
Writing application : mkvmerge v9.4.2 ('So High') 64bit
Writing library : libebml v1.3.4 + libmatroska v1.4.5

Video
ID : 2
Format : AVC
Format/INFO : Advanced Video Codec
Format profile : High@L4
Format settings : CABAC / 4 Ref Frames
Format settings, CABAC : Yes
Format settings, Reference : 4 frames
Codec ID : V_MPEG4/ISO/AVC
Duration : 43 min 55 s
Bit rate : 5 226 kb/s
Width : 1 916 pixels
Height : 1 076 pixels
Display aspect ratio : 16:9
Frame rate mode : Constant
Frame rate : 23.976 (23976/1000) FPS
Color space : YUV
Chroma subsampling : 4:2:0
Bit depth : 8 bits
Scan type : Progressive
Bits/(Pixel*Frame) : 0.106
Stream size : 1.60 GiB (93%)
Language : English
Default : Yes
Forced : No
Color range : Limited
Color primaries : BT.709
Transfer characteristics : BT.709
Matrix coefficients : BT.709

Audio
ID : 1
Format : AC-3
Format/INFO : Audio Coding 3
Commercial name : Dolby Digital
Codec ID : A_AC3
Duration : 43 min 55 s
Bit rate mode : Constant
Bit rate : 384 kb/s
Channel(s) : 2 channels
Channel layout : L R
Sampling rate : 48.0 kHz
Frame rate : 31.250 FPS (1536 SPF)
Compression mode : Lossy
Stream size : 121 MiB (7%)
Language : Polish
Service kind : Complete Main
Default : Yes
Forced : No



====================================================

PODOBNE TORRENTY
Lucyfer - Lucifer [2015] [SEZON 1] [1080P] [WEB-DL] [WEB-DL] [AC3.2.0.] [H264-RALF] Lucyfer - Lucifer [2019] [SEZON 4] [1080P] [WEB-DL][WEB-DL][AC3.2.0.][H264-RALF] Lucyfer - Lucifer [2017-2018] [SEZON 3] [1080P] [WEB-DL][AC3.2.0.][H264-RALF] Lucyfer - Lucifer *2016-* [S01-S05E08] [720p.WEB-DL.H264-Ralf-666] [Lektor PL] [Alusia] Lucyfer - Lucifer [Sezon 01] [480p] [WEB-DL] [AC3] [XviD-Ralf] [Lektor PL] Lucyfer - Lucifer [Sezon 01-03] [480p] [WEB-DL] [AC3] [XviD-Ralf] [Lektor PL]
Szczegóły torrenta
TRACKER
Tracker Podstawowy: http://mail2.zelenaya.net/announce

Multitrackery:

http://mail2.zelenaya.net/announce

UAKTUALNIENIE
04/11/2020 16:10:43 (Jeśeli nie widac seeda kliknij na [uaktualnij] by odswieżyć statystyki).
[Lub sprawdź programem do pobierania torrentów, ponieważ niektóre trackery nie wyświetlają statystyk]
18 pliki
 
KOMENTARZE


Brak komentarzy...

DODAJ KOMENTARZ

Zaloguj się aby dodawać komentarze !!!



Wstecz








WRÓĆ NA GÓRĘ