FileTracker.PL - Darmowe polskie torrenty

Witaj drogi Towarzyszu!, jeżeli widzisz ten dymek to znaczy że nie jesteś jeszcze zarejestrowany/zalogowany. Kliknij by się zarejestrować . Rejestracja zajmie mniej niż 30 sekund, a dzięki niej zyskasz możliwość pobierania, komentowania oraz dodawania torrentów !
User:  Hasło:     



Kategorie


Detale Torrenta


Maski szpiega / Legends (2014) [Sezon 1] [720p] [AC3] [AVI] [Lektor PL]

S: 5L: 0P: 328
Dodał: bazatroli Tracker:
Kondycja:Dodane:2020-10-16 18:04:11
Kategoria:Seriale  »  AkcjaRozmiar:4.90 GB
Język:Lektor PL  Lektor PL------------------
Obserwuj:OBSERWUJ TORRENTAStaty:UAKTUALNIJ TRACKER
Download: Pobierz TorrentRaport:RAPORTUJ TORRENTA
INFO:
Gatunek: Dramat, Kryminał, Akcja
Produkcja: USA
Stacja telewizyjna:Fox 21
Data premiery serialu: 13 August 2014 (USA)
Czas trwania odcinka około 41 min.

OPIS
Serial na podstawie książki Roberta Littella. Tajny agent CIA, Martin Odum (Sean Bean) ma niesamowitą umiejętność do zmiany tożsamości na potrzeby śledztwa. Wcielenia, którymi dysponuje to tzw."legendy". Po latach przemian Martin nie wie już, która postać jest jego prawdziwą osobowością. Czy agent będzie potrafił wrócić do normalnego życia?

DANE TECH:
Complete name : Legends S01Maski szpiega.Legends.S01.Lektor PL PL.avi
Format : AVI
Format/INFO : Audio Video Interleave
File size : 499 MiB
Duration : 41mn 47s
Overall bit rate : 1 671 Kbps
Writing application : Lavf55.43.100

Video
ID : 0
Format : xvid
Codec ID : xvid
Duration : 41mn 47s
Bit rate : 1 500 Kbps
Width : 720 pixels
Height : 400 pixels
Display aspect ratio : 16:9
Frame rate : 23.976 fps
Bits/(Pixel*Frame) : 0.217
Stream size : 448 MiB (90%)

Audio
ID : 1
Format : AC-3
Format/INFO : Audio Coding 3
Mode extension : CM (complete main)
Format settings, Endianness : Big
Codec ID : 2000
Duration : 41mn 46s
Bit rate mode : Constant
Bit rate : 160 Kbps
Channel(s) : 2 channels
Channel positions : Front: L R
Sampling rate : 48.0 KHz
Bit depth : 16 bits
Compression mode : Lossy
Stream size : 47.8 MiB (10%)
Alignment : Aligned on interleaves
Interleave, duration : 32 ms (0.77 video frame)






====================================================

PODOBNE TORRENTY
Maski szpiega / Legends (2015) [Sezon 2] [1080p] [WEB-DL] [AC3.2.0] [H264-Ralf] [Lektor PL] Maski szpiega - Legends 2014 [S02E01] [720p] [HDTV] [x264-BATV] [ENG] Maski szpiega - Legends 2014 [S02E02] [720p] [HDTV] [x264-BATV] [ENG] Maski szpiega - Legends 2014 [S02E03] [720p] [HDTV] [x264-OSEC] [ENG] Maski szpiega - Legends 2014 [S02E04] [720p] [HDTV] [x264-FLEET] [ENG] Maski szpiega - Legends 2014 [S02E05] [720p] [HDTV] [x264-FLEET] [ENG]
Szczegóły torrenta
TRACKER
Tracker Podstawowy: udp://tracker.openbittorrent.com:80/announce

Multitrackery:

udp://tracker.openbittorrent.com:80/announce
udp://tracker.publicbt.com:80/announce

UAKTUALNIENIE
04/11/2020 19:03:45 (Jeśeli nie widac seeda kliknij na [uaktualnij] by odswieżyć statystyki).
[Lub sprawdź programem do pobierania torrentów, ponieważ niektóre trackery nie wyświetlają statystyk]
10 pliki
 
KOMENTARZE


andwawa17/10/2020 10.45.15
Można prosić o S2
Status użytkownika:   17/10/2020 10.45.15  TOP

DODAJ KOMENTARZ

Zaloguj się aby dodawać komentarze !!!



Wstecz








WRÓĆ NA GÓRĘ