FileTracker.PL - Darmowe polskie torrenty

Witaj drogi Towarzyszu!, jeżeli widzisz ten dymek to znaczy że nie jesteś jeszcze zarejestrowany/zalogowany. Kliknij by się zarejestrować . Rejestracja zajmie mniej niż 30 sekund, a dzięki niej zyskasz możliwość pobierania, komentowania oraz dodawania torrentów !
User:  Hasło:     



Kategorie


Detale Torrenta


Enola Holmes *2020* [NF.WEBRip.x264-ION10] [ENG] [Sub.Multi: Napisy PL]

S: 0L: 0P: 90
Dodał: SHOW Tracker:
Kondycja:Dodane:2020-09-23 21:11:57
Kategoria:Filmy X264 / H264  »  PrzygodoweRozmiar:1.18 GB
Język:Napisy PL  Napisy PL------------------
Obserwuj:OBSERWUJ TORRENTAStaty:UAKTUALNIJ TRACKER
Download: Pobierz TorrentRaport:RAPORTUJ TORRENTA
[INFO]
https://www.filmweb.pl/film/Enola+Holmes-2020-839407
https://www.imdb.com/title/tt7846844/
Tytuł: Enola Holmes
Produkcja: USA
Gatunek: Kryminał, Przygodowy
Premiera: 23 września 2020 (świat)
Reżyseria: Harry Bradbeer
Scenariusz: Jack Thorne

[DESCRIPTION]
Anglia, rok 1884. Świat stoi u progu wielkich zmian. W dzień swoich 16. urodzin Enola Holmes (Millie Bobby Brown) odkrywa, że jej matka (Helena Bonham Carter) opuściła dom. Kobieta pozostawiła po sobie dziwaczne podarunki, lecz żadnych wskazówek dotyczących powodu swojego zniknięcia ani obecnego miejsca pobytu. Ciesząca się do tej pory beztroskim dzieciństwem Enola nagle trafia pod opiekę swoich braci, Sherlocka (Henry Cavill) i Mycrofta (Sam Claflin), którzy planują odesłać ją do szkoły z internatem dla "młodych dam". Dziewczyna ma jednak inne plany: ucieka, aby odnaleźć swoją matkę w Londynie. Wkrótce okazuje się, że jej własna misja powiązana jest z losami młodego, tajemniczego uciekiniera, Lorda (Louis Partridge). Rozwijająca swoje umiejętności detektywistyczne Enola okazuje się sprytniejsza od swojego słynnego brata i natrafia na trop spisku, który może odmienić historię ludzkości.

[STAFF]
Millie Bobby Brown .... Enola Holmes
Henry Cavill .... Sherlock Holmes
Sam Claflin .... Mycroft Holmes
Helena Bonham Carter .... Pani Holmes
Louis Partridge .... Lord Tewksbury
Fiona Shaw .... Konduktor
Joakim Skarl .... Roy
Hattie Jackson .... Pasażerka pociągu

[TECHNICAL_DATA]
MediaINFO ?
Video
ID : 1
Format : AVC
Format/INFO : Advanced Video Codec
Format profile : High@L3.1
Format settings : CABAC / 5 Ref Frames
Format settings, CABAC : Yes
Format settings, Reference frames : 5 frames
Codec ID : avc1
Codec ID/INFO : Advanced Video Coding
Duration : 2 h 3 min
Bit rate : 1 100 kb/s
Width : 720 pixels
Height : 302 pixels
Display aspect ratio : 2.40:1
Original display aspect ratio : 2.40:1
Frame rate mode : Constant
Frame rate : 24.000 FPS
Color space : YUV
Chroma subsampling : 4:2:0
Bit depth : 8 bits
Scan type : Progressive
Bits/(Pixel*Frame) : 0.211
Stream size : 975 MiB (81%)
Title : RARBG - Enola.Holmes.2020.WEBRip.x264-ION10
Writing library : x264 core 152 r2851M ba24899
Encoding settings : cabac=1 / ref=5 / deblock=1:-1:-1 / analyse=0x3:0x113 / me=umh / subme=9 / psy=1 / psy_rd=1.00:0.15 / mixed_ref=1 / me_range=16 / chroma_me=1 / trellis=2 / 8x8dct=1 / cqm=0 / deadzone=21,11 / fast_pskip=1 / chroma_qp_offset=-3 / threads=16 / lookahead_threads=1 / sliced_threads=0 / nr=0 / decimate=1 / interlaced=0 / bluray_compat=0 / constrained_intra=0 / bframes=3 / b_pyramid=2 / b_adapt=2 / b_bias=0 / direct=3 / weightb=1 / open_gop=0 / weightp=2 / keyint=250 / keyint_min=24 / scenecut=40 / intra_refresh=0 / rc_lookahead=50 / rc=2pass / mbtree=1 / bitrate=1100 / ratetol=1.0 / qcomp=0.60 / qpmin=0 / qpmax=69 / qpstep=4 / cplxblur=20.0 / qblur=0.5 / ip_ratio=1.40 / aq=1:1.00
Encoded date : UTC 2020-09-23 05:36:07
Tagged date : UTC 2020-09-23 05:36:07
Codec configuration box : avcC

Audio
ID : 2
Format : AAC LC
Format/INFO : Advanced Audio Codec Low Complexity
Codec ID : mp4a-40-2
Duration : 2 h 3 min
Duration_LastFrame : -11 ms
Bit rate mode : Constant
Bit rate : 256 kb/s
Channel(s) : 2 channels
Channel layout : L R
Sampling rate : 48.0 kHz
Frame rate : 46.875 FPS (1024 SPF)
Compression mode : Lossy
Stream size : 227 MiB (19%)
Title : RARBG - Enola.Holmes.2020.WEBRip.x264-ION10
Language : English
Default : Yes
Alternate group : 1
Encoded date : UTC 2020-09-23 05:36:07
Tagged date : UTC 2020-09-23 05:36:07

[IMG_VIDEO]






====================================================

PODOBNE TORRENTY
Enola Holmes *2020* [720p.NF.WEBRip.DDP5.1.Atmos.x264-CM] [ENG] [Sub.Multi: Napisy PL] Enola.Holmes *2020* [MULTi.SUB.] [1080p] [NF] [WEBRip] [DDP5.1] [Atmos] [x264-CM] [Napisy PL]  [zibi6248] Enola Holmes (2020) [NF] [MULTi] [1080p] [WEB-DL] [x264] [AC3-OzW] [Dubbing i Napisy PL] Enola Holmes *2020* [MULTi] [2160p] [WEB-DL] [HDR] [x265.DD5.1-MR] [Dubbing i Napisy PL] [zibi6248] Enola Holmes (2020) [MULTi] [1080p] [NF] [WEB-DL] [x264] [AC3-OzW] [Dubbing PL] Ziemia nocą - Night On Earth [S01] [KomPLet] (2020) [WEBRip] [x264] [ION10] [Napisy PL + multi]
Szczegóły torrenta
TRACKER
Tracker Podstawowy: http://tracker.trackerfix.com:80/announce

Multitrackery:

http://tracker.trackerfix.com:80/announce
udp://9.rarbg.me:2960/announce
udp://9.rarbg.to:2900/announce

UAKTUALNIENIE
05/11/2020 19:57:43 (Jeśeli nie widac seeda kliknij na [uaktualnij] by odswieżyć statystyki).
[Lub sprawdź programem do pobierania torrentów, ponieważ niektóre trackery nie wyświetlają statystyk]
34 pliki
 
KOMENTARZE


Brak komentarzy...

DODAJ KOMENTARZ

Zaloguj się aby dodawać komentarze !!!



Wstecz








WRÓĆ NA GÓRĘ