FileTracker.PL - Darmowe polskie torrenty

Witaj drogi Towarzyszu!, jeżeli widzisz ten dymek to znaczy że nie jesteś jeszcze zarejestrowany/zalogowany. Kliknij by się zarejestrować . Rejestracja zajmie mniej niż 30 sekund, a dzięki niej zyskasz możliwość pobierania, komentowania oraz dodawania torrentów !
User:  Hasło:     



Kategorie


Detale Torrenta


Sol Levante (2020) [WEB-DL NF 4K UHD 2160p ProRes HDR10 PCM] [BEZ DIALOGÓW]

S: 22L: 12P: 14
Dodał: marioforeverrr Tracker:
Kondycja:Dodane:2020-04-09 21:11:48
Kategoria:Anime  »  Anime RAWRozmiar:34.82 GB
Język:Nie określono  Nie określono------------------
Obserwuj:OBSERWUJ TORRENTAStaty:UAKTUALNIJ TRACKER
Download: Pobierz TorrentRaport:RAPORTUJ TORRENTA


Tytuł oryginalny: Sol Levante
Tytuł polski: Sol Levante
Tytuły alternatywne: ソル・レヴァンテ, 旭日
Typ anime: ONA/Web
Kraj i rok produkcji: Japonia, 2020
Premiera: 02.04.2020
Gatunek: Akcja, Fantasy, Przygodowy, Krótkometrażowy
Format pliku: MOV
Audio: oryginalny 5.1, oryginalny 2.0
Jakość: najwyższa
Źródło: www (NF)
Rozdzielczość: 3840x2160
Kodek wideo: ProRes
Kodek audio: PCM
Czas trwania: ok. 4 min.




Młoda wojowniczka i jej towarzysz poszukują świętego miejsca, które podobno spełnia życzenia. Lepiej nie rozwścieczać pradawnych strażników i duchów.

To pierwsze ręcznie rysowane anime w jakości 4K HDR jest wspólną produkcją legendarnego studia Production I.G i Netflix.


Źródło: Netflix




General
Complete name : SolLevante_HDR10_r2020_ST2084_UHD_24fps_1000nit.mov
Format : MPEG-4
Format profile : QuickTime
Codec ID : qt 0000.00 (qt )
File size : 34.8 GiB
Duration : 4 min 23 s
Overall bit rate mode : Variable
Overall bit rate : 1 137 Mb/s
Encoded date : UTC 2020-04-01 02:10:29
Tagged date : UTC 2020-04-01 02:24:20
Writing library : Apple QuickTime

Video
ID : 1
Format : ProRes
Format version : Version 1
Format profile : 4444 XQ
Codec ID : ap4x
Duration : 4 min 23 s
Bit rate mode : Variable
Bit rate : 1 128 Mb/s
Width : 3 840 pixels
Height : 2 160 pixels
Display aspect ratio : 16:9
Frame rate mode : Constant
Frame rate : 24.000 FPS
Color space : YUV
Chroma subsampling : 4:4:4
Scan type : Progressive
Bits/(Pixel*Frame) : 5.666
Stream size : 34.5 GiB (99%)
Title : Core Media Video
Writing library : abm0
Encoded date : UTC 2020-04-01 02:10:29
Tagged date : UTC 2020-04-01 02:24:20
Color primaries : BT.2020
Transfer characteristics : PQ
Matrix coefficients : BT.2020 non-constant

Audio #1
ID : 2
Format : PCM
Format settings : Little / Signed
Codec ID : lpcm
Duration : 4 min 23 s
Bit rate mode : Constant
Bit rate : 6 912 kb/s
Channel(s) : 6 channels
Channel layout : L R C LFE Ls Rs
Sampling rate : 48.0 kHz
Bit depth : 24 bits
Stream size : 217 MiB (1%)
Title : Core Media Audio
Encoded date : UTC 2020-04-01 02:10:29
Tagged date : UTC 2020-04-01 02:24:20

Audio #2
ID : 3
Format : PCM
Format settings : Little / Signed
Codec ID : lpcm
Duration : 4 min 23 s
Bit rate mode : Constant
Bit rate : 2 304 kb/s
Channel(s) : 2 channels
Channel layout : L R
Sampling rate : 48.0 kHz
Bit depth : 24 bits
Stream size : 72.3 MiB (0%)
Title : Core Media Audio
Encoded date : UTC 2020-04-01 02:10:29
Tagged date : UTC 2020-04-01 02:24:20

Other
ID : 4
Type : Time code
Format : QuickTime TC
Duration : 4 min 23 s
Frame rate : 24.000 FPS
Time code of first frame : 00:00:00:00
Time code, striped : Yes
Title : Core Media Time Code / urn:uuid:67d69635-4779-482e-887f-beab7d0d8355
Encoded date : UTC 2020-04-01 02:10:29
Tagged date : UTC 2020-04-01 02:24:20

====================================================

PODOBNE TORRENTY
Sol Levante (2020) [WEB-DL NF 4K UHD 2160p ProRes HDR10 PCM + Full Content] [BEZ DIALOGÓW] Sol Levante (2020) [WEBRip UHD 4K 2160p SDR AVC PCM] [BEZ DIALOGÓW] Sol Levante (2020) [WEBRip MasterRip 2160p HEVC-10bit HDR FLAC] [LoliHouse] [BEZ DIALOGÓW] Sol Levante (2020) [WEB-DL 720p H264 AC3] [DragsterPS] [BEZ DIALOGÓW] Sol Levante (2020) [WEB-DL 720p HEVC AC3] [DragsterPS] [BEZ DIALOGÓW] Sol Levante (2020) [WEB-DL 1080p H264 EAC3] [DragsterPS] [BEZ DIALOGÓW]
Szczegóły torrenta
TRACKER
Tracker Podstawowy: http://nyaa.tracker.wf:7777/announce

Multitrackery:

http://nyaa.tracker.wf:7777/announce
udp://open.stealth.si:80/announce
udp://tracker.opentrackr.org:1337/announce
udp://tracker.coppersurfer.tk:6969/announce
udp://exodus.desync.com:6969/announce

UAKTUALNIENIE
09/04/2020 21:11:57 (Jeśeli nie widac seeda kliknij na [uaktualnij] by odswieżyć statystyki).
[Lub sprawdź programem do pobierania torrentów, ponieważ niektóre trackery nie wyświetlają statystyk]
1 file
 
KOMENTARZE


Brak komentarzy...

DODAJ KOMENTARZ

Zaloguj się aby dodawać komentarze !!!



Wstecz








WRÓĆ NA GÓRĘ