FileTracker.PL - Darmowe polskie torrenty

Witaj drogi Towarzyszu!, jeżeli widzisz ten dymek to znaczy że nie jesteś jeszcze zarejestrowany/zalogowany. Kliknij by się zarejestrować . Rejestracja zajmie mniej niż 30 sekund, a dzięki niej zyskasz możliwość pobierania, komentowania oraz dodawania torrentów !
User:  Hasło:     



Kategorie


Detale Torrenta


Lucyfer - Lucifer [2015] [SEZON 1] [1080P] [WEB-DL] [WEB-DL] [AC3.2.0.] [H264-RALF]

S: 0L: 2P: 250
Dodał: Hi-Tech Tracker:
Kondycja:Dodane:2020-02-22 19:59:43
Kategoria:Seriale  »  Sci-Fi / FantasyRozmiar:21.18 GB
Język:Lektor PL  Lektor PL------------------
Obserwuj:OBSERWUJ TORRENTAStaty:UAKTUALNIJ TRACKER
Download: Pobierz TorrentRaport:RAPORTUJ TORRENTA
Raport: RAPORTUJ TORRENTA
...( INFO )...

Tytuł:Lucifer - Lucyfer / Sezon 01 [2015] [Epizodów:13]
=================================
Produkcja: USA
Gatunek: Fantasy, Kryminał
Stacja telewizyjna: FOX
Data premiery serialu: 30 listopada 2015 r. - Świat
Muzyka: Marco Beltrami, Dennis Smith
Zdjęcia: Barry Donlevy, Christian Sebaldt

...( Opis )...

Lucyfer Morningstar (Tom Ellis) to Władca Piekieł, którego nudzi dotychczasowe życie. Postanawia więc porzucić swoją funkcję i przenieść się do Los Angeles, gdzie zostaje właścicielem luksusowego klubu nocnego. Gdy dochodzi do zabójstwa wschodzącej gwiazdy muzyki pop, postanawia użyć swoich nadprzyrodzonych mocy, aby pomóc schwytać mordercę. Wkrótce rozpoczyna pracę w policji i stara się karać ludzi za zbrodnie.

...( OBSADA )...

★ Tom Ellis .... Lucifer Morningstar
★ Rachael Harris .... Dr Linda Martin
★ Lesley-Ann Brandt .... Mazikeen "Maze"
★ Lauren German .... Chloe Decker
★ D.B. Woodside .... Amenadiel
★ Scarlett Estevez .... Trixie
★ Kevin Alejandro .... Dan Espinoza
★ Kevin Rankin .... Malcolm Graham

General
Complete name : lucifer.s01e01.pilot.pl.1080p.web-dl.ac3.2.0.h264-ralf.mkv
Format : Matroska
Format version : Version 2
File size : 1.67 GiB
Duration : 44 min 55 s
Overall bit rate : 5 323 kb/s
Encoded date : UTC 2016-03-17 09:28:32
Writing application : mkvmerge v3.0.0 ('Hang up your Hang-Ups') built on Dec 12 2009 15:20:35
Writing library : libebml v0.7.9 + libmatroska v0.8.1

Video
ID : 1
Format : AVC
Format/INFO : Advanced Video Codec
Format profile : High@L4
Format settings : CABAC / 4 Ref Frames
Format settings, CABAC : Yes
Format settings, Reference : 4 frames
Codec ID : V_MPEG4/ISO/AVC
Duration : 44 min 55 s
Bit rate : 4 993 kb/s
Width : 1 916 pixels
Height : 1 076 pixels
Display aspect ratio : 16:9
Frame rate mode : Constant
Frame rate : 23.976 FPS
Color space : YUV
Chroma subsampling : 4:2:0
Bit depth : 8 bits
Scan type : Progressive
Bits/(Pixel*Frame) : 0.101
Stream size : 1.57 GiB (94%)
Language : English
Default : No
Forced : No
Color range : Limited
Color primaries : BT.709
Transfer characteristics : BT.709
Matrix coefficients : BT.709

Audio
ID : 2
Format : AC-3
Format/INFO : Audio Coding 3
Commercial name : Dolby Digital
Codec ID : A_AC3
Duration : 44 min 55 s
Bit rate mode : Constant
Bit rate : 224 kb/s
Channel(s) : 2 channels
Channel layout : L R
Sampling rate : 48.0 kHz
Frame rate : 31.250 FPS (1536 SPF)
Compression mode : Lossy
Stream size : 72.0 MiB (4%)
Language : Polish
Service kind : Complete Main
Default : No
Forced : No



====================================================

PODOBNE TORRENTY
Lucyfer - Lucifer [2016] [SEZON 2] [1080P] [WEB-DL]] [AC3.2.0.]H264-RALF] Lucyfer - Lucifer [2019] [SEZON 4] [1080P] [WEB-DL][WEB-DL][AC3.2.0.][H264-RALF] Lucyfer - Lucifer [2017-2018] [SEZON 3] [1080P] [WEB-DL][AC3.2.0.][H264-RALF] Lucyfer - Lucifer [Sezon 01] [480p] [WEB-DL] [AC3] [XviD-Ralf] [Lektor PL] Lucyfer - Lucifer [Sezon 01-03] [480p] [WEB-DL] [AC3] [XviD-Ralf] [Lektor PL] Lucyfer / Lucifer [Sezon 01-04] [480p] [WEB-DL] [XviD] [AC3-Ralf] [Lektor PL]
Szczegóły torrenta
TRACKER
Tracker Podstawowy: http://mail2.zelenaya.net/announce

Multitrackery:

http://mail2.zelenaya.net/announce
udp://tracker.nyaa.uk:6969/announce
udp://9.rarbg.me:2710/announce
udp://9.rarbg.com:2710/announce
udp://9.rarbg.me:2780/announce
udp://9.rarbg.to:2710/announce
udp://tracker.opentrackr.org:1337/announce
udp://tracker.coppersurfer.tk:6969/announce
udp://tracker.leechers-paradise.org:6969/announce
http://tracker.yoshi210.com:6969/announce
https://tracker.vectahosting.eu:2053/announce
udp://tracker.ds.is:6969/announce
udp://tracker.publicbt.com:80/announce
udp://tracker.openbittorrent.com:80/announce

UAKTUALNIENIE
14/11/2020 11:14:38 (Jeśeli nie widac seeda kliknij na [uaktualnij] by odswieżyć statystyki).
[Lub sprawdź programem do pobierania torrentów, ponieważ niektóre trackery nie wyświetlają statystyk]
25 pliki
 
KOMENTARZE


Brak komentarzy...

DODAJ KOMENTARZ

Zaloguj się aby dodawać komentarze !!!



Wstecz








WRÓĆ NA GÓRĘ