FileTracker.PL - Darmowe polskie torrenty

Witaj drogi Towarzyszu!, jeżeli widzisz ten dymek to znaczy że nie jesteś jeszcze zarejestrowany/zalogowany. Kliknij by się zarejestrować . Rejestracja zajmie mniej niż 30 sekund, a dzięki niej zyskasz możliwość pobierania, komentowania oraz dodawania torrentów !
User:  Hasło:     



Kategorie


Detale Torrenta


Lucyfer - Lucifer [2019] [SEZON 4] [1080P] [WEB-DL][WEB-DL][AC3.2.0.][H264-RALF]

S: 0L: 1P: 211
Dodał: Hi-Tech Tracker:
Kondycja:Dodane:2020-02-09 11:02:58
Kategoria:Seriale  »  Sci-Fi / FantasyRozmiar:16.35 GB
Język:Lektor PL  Lektor PL------------------
Obserwuj:OBSERWUJ TORRENTAStaty:UAKTUALNIJ TRACKER
Download: Pobierz TorrentRaport:RAPORTUJ TORRENTA
...( INFO )...

Tytuł:Lucifer - Lucyfer / Sezon 04 [2019] [Epizodów:13]
=================================
Produkcja: USA
Gatunek: Fantasy, Kryminał
Stacja telewizyjna: FOX
Data premiery serialu: 30 listopada 2015 r. - Świat
Muzyka: Marco Beltrami, Dennis Smith
Zdjęcia: Barry Donlevy, Christian Sebaldt

...( Opis )...

Lucyfer Morningstar (Tom Ellis) to Władca Piekieł, którego nudzi dotychczasowe życie. Postanawia więc porzucić swoją funkcję i przenieść się do Los Angeles, gdzie zostaje właścicielem luksusowego klubu nocnego. Gdy dochodzi do zabójstwa wschodzącej gwiazdy muzyki pop, postanawia użyć swoich nadprzyrodzonych mocy, aby pomóc schwytać mordercę. Wkrótce rozpoczyna pracę w policji i stara się karać ludzi za zbrodnie.

...( OBSADA )...

★ Tom Ellis .... Lucifer Morningstar
★ Rachael Harris .... Dr Linda Martin
★ Lesley-Ann Brandt .... Mazikeen "Maze"
★ Lauren German .... Chloe Decker
★ D.B. Woodside .... Amenadiel
★ Scarlett Estevez .... Trixie
★ Kevin Alejandro .... Dan Espinoza
★ Kevin Rankin .... Malcolm Graham

...( DANE TECH )...
General
Complete name : Lucifer.s04e01.everythings.okay.pl.1080p.nf.web-dl.dd5.1.h264-ralf.mkv
Format : Matroska
Format version : Version 4
File size : 1.62 GiB
Duration : 48 min 41 s
Overall bit rate mode : Variable
Overall bit rate : 4 760 kb/s
Encoded date : UTC 2019-05-08 07:22:29
Writing application : mkvmerge v10.0.0 ('To Drown In You') 32bit
Writing library : libebml v1.3.4 + libmatroska v1.4.5

Video
ID : 1
Format : AVC
Format/INFO : Advanced Video Codec
Format profile : Main@L4
Format settings : CABAC / 3 Ref Frames
Format settings, CABAC : Yes
Format settings, Reference : 3 frames
Codec ID : V_MPEG4/ISO/AVC
Duration : 48 min 41 s
Bit rate mode : Variable
Bit rate : 4 420 kb/s
Maximum bit rate : 6 630 kb/s
Width : 1 920 pixels
Height : 1 080 pixels
Display aspect ratio : 16:9
Frame rate mode : Constant
Frame rate : 23.976 (24000/1001) FPS
Color space : YUV
Chroma subsampling : 4:2:0
Bit depth : 8 bits
Scan type : Progressive
Bits/(Pixel*Frame) : 0.089
Stream size : 1.49 GiB (92%)
Writing library : x264 core 148 r2715 7e75228
Encoding settings : cabac=1 / ref=3 / deblock=1:0:0 / analyse=0x1:0x111 / me=umh / subme=10 / psy=1 / psy_rd=1.00:0.00 / mixed_ref=1 / me_range=24 / chroma_me=1 / trellis=2 / 8x8dct=0 / cqm=0 / deadzone=21,11 / fast_pskip=1 / chroma_qp_offset=-2 / threads=8 / lookahead_threads=1 / sliced_threads=0 / nr=0 / decimate=1 / interlaced=0 / bluray_compat=0 / stitchable=1 / constrained_intra=0 / bframes=2 / b_pyramid=0 / b_adapt=2 / b_bias=0 / direct=3 / weightb=1 / open_gop=0 / weightp=2 / keyint=48 / keyint_min=25 / scenecut=0 / intra_refresh=0 / rc_lookahead=48 / rc=2pass / mbtree=1 / bitrate=4420 / ratetol=1.0 / qcomp=0.50 / qpmin=6 / qpmax=51 / qpstep=4 / cplxblur=20.0 / qblur=0.5 / vbv_maxrate=6630 / vbv_bufsize=8840 / nal_hrd=vbr / filler=0 / ip_ratio=1.40 / aq=1:1.00
Language : English
Default : Yes
Forced : No

Audio
ID : 2
Format : AC-3
Format/INFO : Audio Coding 3
Commercial name : Dolby Digital
Codec ID : A_AC3
Duration : 48 min 41 s
Bit rate mode : Constant
Bit rate : 384 kb/s
Channel(s) : 6 channels
Channel layout : L R C LFE Ls Rs
Sampling rate : 48.0 kHz
Frame rate : 31.250 FPS (1536 SPF)
Compression mode : Lossy
Stream size : 134 MiB (8%)
Language : Polish
Service kind : Complete Main
Default : Yes
Forced : No



====================================================

PODOBNE TORRENTY
Lucyfer - Lucifer [2015] [SEZON 1] [1080P] [WEB-DL] [WEB-DL] [AC3.2.0.] [H264-RALF] Lucyfer - Lucifer [2016] [SEZON 2] [1080P] [WEB-DL]] [AC3.2.0.]H264-RALF] Lucyfer - Lucifer [2017-2018] [SEZON 3] [1080P] [WEB-DL][AC3.2.0.][H264-RALF] Lucyfer - Lucifer *2019* [Sezon 04] [480p] [NF] [WEB-DL] [DD5.1] [XviD-Ralf] [Lektor PL] Lucyfer - Lucifer [Sezon 01] [480p] [WEB-DL] [AC3] [XviD-Ralf] [Lektor PL] Lucyfer - Lucifer [Sezon 01-03] [480p] [WEB-DL] [AC3] [XviD-Ralf] [Lektor PL]
Szczegóły torrenta
TRACKER
Tracker Podstawowy: http://mail2.zelenaya.net/announce

Multitrackery:

http://mail2.zelenaya.net/announce
udp://tracker.nyaa.uk:6969/announce
udp://9.rarbg.me:2710/announce
udp://9.rarbg.com:2710/announce
udp://9.rarbg.me:2780/announce
udp://9.rarbg.to:2710/announce
udp://tracker.opentrackr.org:1337/announce
udp://tracker.coppersurfer.tk:6969/announce
udp://tracker.leechers-paradise.org:6969/announce
http://tracker.yoshi210.com:6969/announce
https://tracker.vectahosting.eu:2053/announce
udp://tracker.ds.is:6969/announce
udp://tracker.publicbt.com:80/announce
udp://tracker.openbittorrent.com:80/announce

UAKTUALNIENIE
18/10/2020 01:42:08 (Jeśeli nie widac seeda kliknij na [uaktualnij] by odswieżyć statystyki).
[Lub sprawdź programem do pobierania torrentów, ponieważ niektóre trackery nie wyświetlają statystyk]
19 pliki
 
KOMENTARZE


muniek198310/08/2020 19.46.12
seed!!!!!!!!!!!
Status użytkownika:   10/08/2020 19.46.12  TOP
AlicjaG01/03/2020 14.19.50
Nie wiem o co Wam chodzi, właśnie zaczęłam pobierać
Status użytkownika:   01/03/2020 14.19.50  TOP
neoxHETMAN01/03/2020 13.19.41
FAKTYCZNIE, COŚ JEST NIE TAK Z TYM TORKIEM.
Status użytkownika:   01/03/2020 13.19.41  TOP
darutom17/02/2020 14.00.36
nie działa, jest informacja że nie można wczytać invalid torrent file!
Status użytkownika:   17/02/2020 14.00.36  TOP

DODAJ KOMENTARZ

Zaloguj się aby dodawać komentarze !!!



Wstecz








WRÓĆ NA GÓRĘ