FileTracker.PL - Darmowe polskie torrenty

Witaj drogi Towarzyszu!, jeżeli widzisz ten dymek to znaczy że nie jesteś jeszcze zarejestrowany/zalogowany. Kliknij by się zarejestrować . Rejestracja zajmie mniej niż 30 sekund, a dzięki niej zyskasz możliwość pobierania, komentowania oraz dodawania torrentów !
User:  Hasło:     



Kategorie


Detale Torrenta


Lucyfer - Lucifer [2017-2018] [SEZON 3] [1080P] [WEB-DL][AC3.2.0.][H264-RALF]

S: 0L: 1P: 174
Dodał: Hi-Tech Tracker:
Kondycja:Dodane:2020-02-09 11:01:11
Kategoria:Seriale  »  Sci-Fi / FantasyRozmiar:44.06 GB
Język:Lektor PL  Lektor PL------------------
Obserwuj:OBSERWUJ TORRENTAStaty:UAKTUALNIJ TRACKER
Download: Pobierz TorrentRaport:RAPORTUJ TORRENTA
...( INFO )...

Tytuł:Lucifer - Lucyfer / Sezon 03 [2017/2018] [Epizodów:26]
=================================
Produkcja: USA
Gatunek: Fantasy, Kryminał
Stacja telewizyjna: FOX
Data premiery serialu: 30 listopada 2015 r. - Świat
Muzyka: Marco Beltrami, Dennis Smith
Zdjęcia: Barry Donlevy, Christian Sebaldt

...( Opis )...

Lucyfer Morningstar (Tom Ellis) to Władca Piekieł, którego nudzi dotychczasowe życie. Postanawia więc porzucić swoją funkcję i przenieść się do Los Angeles, gdzie zostaje właścicielem luksusowego klubu nocnego. Gdy dochodzi do zabójstwa wschodzącej gwiazdy muzyki pop, postanawia użyć swoich nadprzyrodzonych mocy, aby pomóc schwytać mordercę. Wkrótce rozpoczyna pracę w policji i stara się karać ludzi za zbrodnie.

...( OBSADA )...

★ Tom Ellis .... Lucifer Morningstar
★ Rachael Harris .... Dr Linda Martin
★ Lesley-Ann Brandt .... Mazikeen "Maze"
★ Lauren German .... Chloe Decker
★ D.B. Woodside .... Amenadiel
★ Scarlett Estevez .... Trixie
★ Kevin Alejandro .... Dan Espinoza
★ Kevin Rankin .... Malcolm Graham

...( DANE TECH )...
General
Complete name : lucifer.s03e01.theyre.back.arent.they.pl.1080p.web-dl.dd5.1.h264-ralf.mkv
Format : Matroska
Format version : Version 4
File size : 1.71 GiB
Duration : 43 min 59 s
Overall bit rate : 5 579 kb/s
Encoded date : UTC 2017-10-13 08:11:10
Writing application : mkvmerge v10.0.0 ('To Drown In You') 32bit
Writing library : libebml v1.3.4 + libmatroska v1.4.5

Video
ID : 2
Format : AVC
Format/INFO : Advanced Video Codec
Format profile : [email protected]
Format settings : CABAC / 4 Ref Frames
Format settings, CABAC : Yes
Format settings, Reference : 4 frames
Codec ID : V_MPEG4/ISO/AVC
Duration : 43 min 59 s
Bit rate : 5 194 kb/s
Width : 1 912 pixels
Height : 1 072 pixels
Display aspect ratio : 16:9
Frame rate mode : Constant
Frame rate : 23.976 (23976/1000) FPS
Color space : YUV
Chroma subsampling : 4:2:0
Bit depth : 8 bits
Scan type : Progressive
Bits/(Pixel*Frame) : 0.106
Stream size : 1.60 GiB (93%)
Language : English
Default : No
Forced : No
Color range : Limited
Color primaries : BT.709
Transfer characteristics : BT.709
Matrix coefficients : BT.709

Audio
ID : 1
Format : AC-3
Format/INFO : Audio Coding 3
Commercial name : Dolby Digital
Codec ID : A_AC3
Duration : 43 min 59 s
Bit rate mode : Constant
Bit rate : 384 kb/s
Channel(s) : 6 channels
Channel layout : L R C LFE Ls Rs
Sampling rate : 48.0 kHz
Frame rate : 31.250 FPS (1536 SPF)
Compression mode : Lossy
Stream size : 121 MiB (7%)
Language : Polish
Service kind : Complete Main
Default : Yes
Forced : No



====================================================

PODOBNE TORRENTY
Lucyfer - Lucifer [2015] [SEZON 1] [1080P] [WEB-DL] [WEB-DL] [AC3.2.0.] [H264-RALF] Lucyfer - Lucifer [2016] [SEZON 2] [1080P] [WEB-DL]] [AC3.2.0.]H264-RALF] Lucyfer - Lucifer [2019] [SEZON 4] [1080P] [WEB-DL][WEB-DL][AC3.2.0.][H264-RALF] Lucyfer - Lucifer [Sezon 01] [480p] [WEB-DL] [AC3] [XviD-Ralf] [Lektor PL] Lucyfer - Lucifer [Sezon 01-03] [480p] [WEB-DL] [AC3] [XviD-Ralf] [Lektor PL] Lucyfer / Lucifer [Sezon 01-04] [480p] [WEB-DL] [XviD] [AC3-Ralf] [Lektor PL]
Szczegóły torrenta
TRACKER
Tracker Podstawowy: http://mail2.zelenaya.net/announce

Multitrackery:

http://mail2.zelenaya.net/announce
udp://tracker.nyaa.uk:6969/announce
udp://9.rarbg.me:2710/announce
udp://9.rarbg.com:2710/announce
udp://9.rarbg.me:2780/announce
udp://9.rarbg.to:2710/announce
udp://tracker.opentrackr.org:1337/announce
udp://tracker.coppersurfer.tk:6969/announce
udp://tracker.leechers-paradise.org:6969/announce
http://tracker.yoshi210.com:6969/announce
https://tracker.vectahosting.eu:2053/announce
udp://tracker.ds.is:6969/announce
udp://tracker.publicbt.com:80/announce
udp://tracker.openbittorrent.com:80/announce

UAKTUALNIENIE
30/09/2020 18:51:26 (Jeśeli nie widac seeda kliknij na [uaktualnij] by odswieżyć statystyki).
[Lub sprawdź programem do pobierania torrentów, ponieważ niektóre trackery nie wyświetlają statystyk]
51 pliki
 
KOMENTARZE


Kacper11091230/06/2020 01.04.04
Nie ma dźwięku
Status użytkownika:   30/06/2020 01.04.04  TOP

DODAJ KOMENTARZ

Zaloguj się aby dodawać komentarze !!!



Wstecz








WRÓĆ NA GÓRĘ