FileTracker.PL - Darmowe polskie torrenty

Witaj drogi Towarzyszu!, jeżeli widzisz ten dymek to znaczy że nie jesteś jeszcze zarejestrowany/zalogowany. Kliknij by się zarejestrować . Rejestracja zajmie mniej niż 30 sekund, a dzięki niej zyskasz możliwość pobierania, komentowania oraz dodawania torrentów !
User:  Hasło:     



Kategorie


Detale Torrenta


Dragon Nest: Wojownicy Świtu 3D - Dragon Nest: Warriors Dawn *2014* [1080p.3D.Half.Over-Under.DTS-HD MA.5.1.AC3.BluRay.x264-SONDA] [Lektor PL] [ENG] [AT-TEAM]

S: 0L: 2P: 19
Dodał: Tracker:
Kondycja:Dodane:2015-08-20 16:43:48
Kategoria:Filmy 3D / SBS  »  Animowane / BajkiRozmiar:9.16 GB
Język:Lektor PL  Lektor PL------------------
Obserwuj:OBSERWUJ TORRENTAStaty:UAKTUALNIJ TRACKER
Download: Pobierz TorrentRaport:RAPORTUJ TORRENTA


Film w wersji 3D Over-Under.
Do odtworzenia filmu WYMAGANY odpowiedni sprzęt (TV 3D)
===========================================

gatunek: Animacja, Fantasy, Przygodowy
produkcja: Chiny
premiera: 31 lipca 2014 (świat)
reżyseria:: Yuefeng Song
scenariusz: Bill Borden, Terry Izumi

https://www.filmweb.pl/film?id=702783
https://www.imdb.com/title/tt2911342/

OBSADA:

Jiao Xu ... Liya
Guanlin Ji ... Neilwin
Ying Huang ... Elena
Dawei Shen ... Lambert
Xianglong Meng ... Barnac
Ye Sun ... Gerrant
Tian Jing ... Argenta
Hong Shang ... Terram

Storyline:

The land of Altera has observed an uneasy peace for years among Humans, Elves and Evil beasts who are loyal to the legendary Black Dragon. But the Black Dragon begins to stir from its hibernation, sending the Beasts marching across Altera. With a beast conquest perilously close, a small group of Humans and Elves unite to try to find a secret hidden road to the Black Dragon's cave and destroy it. But the fate of all of them may be in the hands of the young warrior Lambert, who must summon the confidence and skill to face the Black Dragon himself just when all may be lost.

OPIS

Dołącz do młodego rycerza Lamberta, który szuka wolnego kraju Altera. W trakcie niebezpiecznej wyprawy Lambert musi zebrać drużynę Ludzi i Elfów, aby pokonać złe bestie w służbie Czarnego Smoka. Czy Lambert zdobędzie zaufanie i umiejętności niezbędne do pokonania Czarnego Smoka?

Screenshot:







General
Format : Matroska
Format version : Version 2
File size : 9.16 GiB
Duration : 1h 27mn
Overall bit rate mode : Variable
Overall bit rate : 15.0 Mbps
Movie name : Dragon.Nest.Warriors.Dawn_3D.Bluray3D Rip by Sonda [AT-Team]
Encoded date : UTC 2015-08-20 12:08:07
Writing application : mkvmerge v5.7.0 ('The Whirlwind') built on Jul 8 2012 20:08:51
Writing library : libebml v1.2.3 + libmatroska v1.3.0

Video
ID : 1
Format : AVC
Format/INFO : Advanced Video Codec
Format profile : High@L4.1
Format settings, CABAC : Yes
Format settings, ReFrames : 4 frames
Codec ID : V_MPEG4/ISO/AVC
Duration : 1h 27mn
Nominal bit rate : 12.0 Mbps
Width : 1 920 pixels
Height : 1 080 pixels
Display aspect ratio : 1.85:1
Frame rate mode : Constant
Frame rate : 23.976 fps
Color space : YUV
Chroma subsampling : 4:2:0
Bit depth : 8 bits
Scan type : Progressive
Bits/(Pixel*Frame) : 0.241
Title : Rip by Sonda
Writing library : x264 core 148 r2579 73ae2d1
Encoding settings : cabac=1 / ref=4 / deblock=1:0:0 / analyse=0x3:0x113 / rc=abr
Default : Yes
Forced : No

Audio #1
ID : 2
Format : AC-3
Format/INFO : Audio Coding 3
Mode extension : CM (complete main)
Format settings, Endianness : Big
Codec ID : A_AC3
Duration : 1h 27mn
Bit rate mode : Constant
Bit rate : 384 Kbps
Channel(s) : 6 channels
Channel positions : Front: L C R, Side: L R, LFE
Sampling rate : 48.0 KHz
Bit depth : 16 bits
Compression mode : Lossy
Delay relative to video : 1s 0ms
Stream size : 240 MiB (3%)
Title : AC3 5.1 Lektor PL
Language : Polish
Default : Yes
Forced : Yes

Audio #2
ID : 3
Format : AC-3
Format/INFO : Audio Coding 3
Mode extension : CM (complete main)
Format settings, Endianness : Big
Codec ID : A_AC3
Duration : 1h 27mn
Bit rate mode : Constant
Bit rate : 640 Kbps
Channel(s) : 6 channels
Channel positions : Front: L C R, Side: L R, LFE
Sampling rate : 48.0 KHz
Bit depth : 16 bits
Compression mode : Lossy
Stream size : 400 MiB (4%)
Title : AC3 5.1 ENG
Language : English
Default : No
Forced : No

Audio #3
ID : 4
Format : DTS
Format/INFO : Digital Theater Systems
Format profile : MA / Core
Mode : 16
Format settings, Endianness : Big
Codec ID : A_DTS
Duration : 1h 27mn
Bit rate mode : Variable
Bit rate : 2172 / 1 509 Kbps
Channel(s) : 6 channels
Channel positions : Front: L C R, Side: L R, LFE
Sampling rate : 48.0 KHz
Bit depth : 16 bits
Compression mode : Lossless / Lossy
Title : DTS-HD MA 5.1 Original
Language : English
Default : No
Forced : No

Source:
A/V-Dragon.Nest.Warriors.Dawn.2014.1080p.3D.BluRay.AVC.DTS-HD.MA.5.1
Lektor PL - DVDSEED



====================================================

PODOBNE TORRENTY
Dragon Nest: Wojownicy Świtu 3D - Dragon Nest: Warriors Dawn *2014* [mini-HD.1080p.3D.Half.Over-Under.DualAudio.AC3.BluRay.x264-SONDA] [Lektor PL] [ENG] [AT-TEAM] Dragon Nest - Wojownicy Świtu - Dragon Nest - Warriors Dawn *2014* [1080p.BluRay.x264-eend] [Lektor PL] Dragon Nest: Wojownicy Świtu / Dragon Nest: Warriors Dawn (2014) [480P.BRRip.XViD.AC3-OzW] [Lektor PL ] Dragon Nest: Wojownicy Świtu - Dragon Nest: Warriors Dawn *2014* [DVDRip] [XviD-KiT] [Lektor PL] Dragon Nest: Wojownicy Świtu / Dragon Nest: Warriors Dawn (2014) [DVDRip.XviD-KiT] [Lektor PL] Wojownicy Świtu / Dragon Nest: Warriors Dawn (2014) [DVDRip] [XviD-KiT] [Lektor PL]
Szczegóły torrenta
TRACKER
Tracker Podstawowy: http://tracker.aletorrenty.pl:2710/announce

Multitrackery:

http://tracker.aletorrenty.pl:2710/announce
http://tracker.filetracker.pl:8089/announce
http://anisaishuu.de:2710/announce
http://bigfoot1942.sektori.org:6969/announce
http://exodus.desync.com:6969/announce
http://retracker.omsk.ru:2710/announce
http://www.tlv.cc:7777/announce
http://bttracker.crunchbanglinux.org:6969/announce
http://tracker.flashtorrents.org:6969/announce
http://tracker.pubt.net:2710/announce
udp://tracker.aletorrenty.pl:2710/announce
udp://torrent.gresille.org:80/announce
udp://9.rarbg.com:2710/announce
udp://9.rarbg.me:2710/announce
udp://coppersurfer.tk:6969/announce
udp://eddie4.nl:6969/announce
udp://exodus.desync.com:6969/announce
udp://glotorrents.com:6969/announce
udp://inferno.demonoid.ph:3389/announce
udp://open.demonii.com:1337/announce
udp://shadowshq.eddie4.nl:6969/announce
udp://tracker.glotorrents.com:6969/announce
udp://tracker.leechers-paradise.org:6969/announce
udp://tracker.pomf.se/announce
udp://tracker.pomf.se:80/announce
udp://tracker.thepornvilla.com:6969/announce
udp://tracker.xelion.fr:6969/announce
udp://tracker4.piratux.com:6969/announce
udp://www.eddie4.nl:6969/announce
udp://open.demonii.com:1337

UAKTUALNIENIE
22/05/2019 22:47:20 (Jeśeli nie widac seeda kliknij na [uaktualnij] by odswieżyć statystyki).
[Lub sprawdź programem do pobierania torrentów, ponieważ niektóre trackery nie wyświetlają statystyk]
10 pliki
 
KOMENTARZE


Brak komentarzy...

DODAJ KOMENTARZ

Zaloguj się aby dodawać komentarze !!!



Wstecz








WRÓĆ NA GÓRĘ