FileTracker.PL - Darmowe polskie torrenty

Witaj drogi Towarzyszu!, jeżeli widzisz ten dymek to znaczy że nie jesteś jeszcze zarejestrowany/zalogowany. Kliknij by się zarejestrować . Rejestracja zajmie mniej niż 30 sekund, a dzięki niej zyskasz możliwość pobierania, komentowania oraz dodawania torrentów !
User:  Hasło:     



Kategorie


Detale Torrenta


Love, Rosie / Love, Rosie (2014) [BRRip] [H264] [AAC] [Lektor PL]

S: 0L: 1P: 107
Dodał: krilaan Tracker:
Kondycja:Dodane:2019-12-14 14:59:29
Kategoria:Filmy 720p / 1080p  »  RomanseRozmiar:4.55 GB
Język:Lektor PL  Lektor PL------------------
Obserwuj:OBSERWUJ TORRENTAStaty:UAKTUALNIJ TRACKER
Download: Pobierz TorrentRaport:RAPORTUJ TORRENTA
..::INFO::..

Produkcja: Niemcy, Wielka Brytania
Gatunek: Komedia romantyczna
Premiera: 17 października 2014 (świat)
Reżyseria: Christian Ditter
Scenariusz: Juliette Towhidi

..::OPIS::..

Rosie i Alex znają się od dzieciństwa. Gdy chłopak wyjeżdża z Dublina na studia do Ameryki, ich wieloletnią przyjaźń czekają ciężkie chwile.

..::OBSADA::..

Lily Collins ....... Rosie Dunne
Sam Claflin ........ Alex Stewart
Christian Cooke .... Greg
Jaime Winstone ..... Ruby
Suki Waterhouse .... Bethany
Tamsin Egerton ..... Sally

..::DANE-TECH::..

Encoder: Lavf56.25.101
Duration: 01:42:57.26
Bitrate: 6328 kb/s
Stream #0:0(und): Video: h264 (High) (avc1 / 0x31637661), yuv420p, 1920x816 [SAR 1:1 DAR 40:17], 5937 kb/s, 23.98 fps, 23.98 tbr, 24k tbn, 47.95 tbc (default)
Stream #0:1(und): Audio: aac (LC) (mp4a / 0x6134706D), 44100 Hz, 5.1, fltp, 384 kb/s (default)

====================================================

PODOBNE TORRENTY
Love, Rosie / Love, Rosie (2014) [XviD] [AC3] [Lektor PL] Love, Rosie (2014) [480p] [BRRip] [XviD] [AC3-LTN] [Lektor PL] Love, Rosie (2014) [720p] [BRRip] [XviD] [AC3-LTN] [Lektor PL] Cydr z Rosie - Cider with Rosie *2015* [BRRip.XviD-KRT] [Lektor PL] Rosie (2018) [WEB-DL] [XviD-KiT] [Lektor PL] Rosie *2018* [WEB-DL] [1080p] [x264-KiT] [Lektor PL]
Szczegóły torrenta
TRACKER
Tracker Podstawowy: udp://tracker.coppersurfer.tk:6969/announce

Multitrackery:

udp://tracker.coppersurfer.tk:6969/announce
udp://9.rarbg.to:2710/announce
udp://tracker.opentrackr.org:1337/announce

UAKTUALNIENIE
18/02/2020 17:05:03 (Jeśeli nie widac seeda kliknij na [uaktualnij] by odswieżyć statystyki).
[Lub sprawdź programem do pobierania torrentów, ponieważ niektóre trackery nie wyświetlają statystyk]
1 file
 
KOMENTARZE


Brak komentarzy...

DODAJ KOMENTARZ

Zaloguj się aby dodawać komentarze !!!



Wstecz








WRÓĆ NA GÓRĘ