FileTracker.PL - Darmowe polskie torrenty

Witaj drogi Towarzyszu!, jeżeli widzisz ten dymek to znaczy że nie jesteś jeszcze zarejestrowany/zalogowany. Kliknij by się zarejestrować . Rejestracja zajmie mniej niż 30 sekund, a dzięki niej zyskasz możliwość pobierania, komentowania oraz dodawania torrentów !
User:  Hasło:     



Kategorie


Detale Torrenta


Mona Lisa (1986)[BRRip.1080p.x265-HEVC.AC3/PCM] [Lektor i Napisy PL/ENG[ENG]

S: 0L: 2P: 8
Dodał: alE13 Tracker:
Kondycja:Dodane:2015-08-15 16:00:12
Kategoria:Filmy UHD4K / x265  »  SensacyjneRozmiar:4.61 GB
Język:Lektor PL  Lektor PL------------------
Obserwuj:OBSERWUJ TORRENTAStaty:UAKTUALNIJ TRACKER
Download: Pobierz TorrentRaport:RAPORTUJ TORRENTA




https://www.imdb.com/title/tt0091538/
https://www.filmweb.pl/film/Mona+Lisa-1986-7820

reżyseria: Neil Jordan
scenariusz: Neil Jordan, David Leland
gatunek: DramatSensacyjny
produkcja: Wielka Brytania
premiera: 05-1986
czas: 01:43:52



George has just been released from prison, and manages to get a job driving a call girl
from customer to customer. Initially they don't get on; he doesn't fit in with the high
class customers Simone services. Will they ever get on?

George (Bob Hoskins) po wyjściu z więzienia szuka pracy. Znajduje ją jako kierowca
Simone (Cathy Tyson), która jest piękną i luksusową call-girl. Kobieta wkrótce pada
ofiarą swych własnych gierek, w które wmieszany jest niejaki Mortwell (Michael Caine),
a George pakuje się w kłopoty pomagając jej.








Bob Hoskins, Cathy Tyson, Michael Caine



Mona Lisa (1986)-alE13.mkv
Format : Matroska
Format version : Version 4 / Version 2
File size : 4.60 GiB
Duration : 1h 43mn
Overall bit rate : 6 345 Kbps
Movie name : Mona Lisa (1986)-alE13
Encoded date : UTC 2015-08-15 13:30:15
Writing application : mkvmerge v8.2.0 ('World of Adventure') 64bit
Writing library : libebml v1.3.1 + libmatroska v1.4.2
DURATION : 01:43:51.245000000
NUMBER_OF_FRAMES : 1246245
NUMBER_OF_BYTES : 1794592800
_STATISTICS_WRITING_APP : mkvmerge v8.2.0 ('World of Adventure') 64bit
_STATISTICS_WRITING_DATE_UT : 2015-08-15 13:30:15
_STATISTICS_TAGS : BPS DURATION NUMBER_OF_FRAMES NUMBER_OF_BYTES

Video
ID : 1
Format : HEVC
Format/INFO : High Efficiency Video Coding
Codec ID : V_MPEGH/ISO/HEVC
Duration : 1h 43mn
Width : 1 920 pixels
Height : 1 072 pixels
Display aspect ratio : 16:9
Frame rate mode : Constant
Frame rate : 23.976 fps
Title : Mona Lisa (1986)-alE13
Default : Yes
Forced : No

Audio #1
ID : 2
Format : AC-3
Format/INFO : Audio Coding 3
Mode extension : CM (complete main)
Format settings, Endianness : Big
Codec ID : A_AC3
Duration : 1h 43mn
Bit rate mode : Constant
Bit rate : 256 Kbps
Channel(s) : 2 channels
Channel positions : Front: L R
Sampling rate : 48.0 KHz
Compression mode : Lossy
Delay relative to video : 30ms
Stream size : 190 MiB (4%)
Title : Mona Lisa (1986)-alE13
Language : Polish
Default : Yes
Forced : No

Audio #2
ID : 3
Format : AC-3
Format/INFO : Audio Coding 3
Mode extension : CM (complete main)
Format settings, Endianness : Big
Codec ID : A_AC3
Duration : 1h 43mn
Bit rate mode : Constant
Bit rate : 192 Kbps
Channel(s) : 2 channels
Channel positions : Front: L R
Sampling rate : 48.0 KHz
Compression mode : Lossy
Stream size : 143 MiB (3%)
Title : Mona Lisa (1986)-alE13
Language : English
Default : No
Forced : No

Audio #3
ID : 8
Format : PCM
Format settings, Endianness : Big
Codec ID : A_PCM/INT/BIG
Duration : 1h 43mn
Bit rate mode : Constant
Sampling rate : 48.0 KHz
Bit depth : 24 bits
Title : Mona Lisa (1986)-alE13_PCM
Language : English
Default : No
Forced : No

Text #1
ID : 4
Format : PGS
Muxing mode : zlib
Codec ID : S_HDMV/PGS
Codec ID/INFO : Picture based subtitle format used on BDs/HD-DVDs
Title : Mona Lisa (1986)-alE13
Language : English
Default : No
Forced : No

Text #2
ID : 5
Format : VobSub
Muxing mode : zlib
Codec ID : S_VOBSUB
Codec ID/INFO : Picture based subtitle format used on DVDs
Title : Mona Lisa (1986)-alE13_color
Language : English
Default : No
Forced : No

Text #3
ID : 6
Format : VobSub
Muxing mode : zlib
Codec ID : S_VOBSUB
Codec ID/INFO : Picture based subtitle format used on DVDs
Title : Mona Lisa (1986)-alE13_color
Language : Polish
Default : Yes
Forced : No

Text #4
ID : 7
Format : UTF-8
Codec ID : S_TEXT/UTF8
Codec ID/INFO : UTF-8 Plain Text
Title : Mona Lisa (1986)-alE13
Language : Polish
Default : No
Forced : No

====================================================

PODOBNE TORRENTY
Mona Lisa *1986* [720p.BRRip.Xvid-NoNaNo] [Lektor PL] Mona Lisa *1986* [DVDRip.XviD] [Lektor PL] Hombre (1967)[BRRip.1080p.x265-HEVC.AC3/DTS] [Lektor i Napisy PL/ENG] [ENG] EksPLozja-Blown Away (1994)[BRRip.1080p.x265-HEVC.DTS/AC3] [Lektor i Napisy PL/ENG] [ENG] Interkosmos-Innerspace (1987)[BRRip.1080p.x265-HEVC.AC3] [Lektor i Napisy PL/ENG] [ENG] Air America (1990)[BRRip.1080p.x265-HEVC by alE13.AC3/DTS] [Lektor i napisy PL/ENG] [ENG]
Szczegóły torrenta
TRACKER
Tracker Podstawowy: http://tracker.filetracker.pl:8089/announce

Multitrackery:

http://tracker.filetracker.pl:8089/announce
http://torrent.gresille.org/announce.php
udp://exodus.desync.com:6969/announce
http://retracker.telecom.kz/announce
http://torrent.gresille.org/announce.php
http://torrent.gresille.org/announce.php
udp://inferno.demonoid.ph:3389/announce
http://retracker.telecom.kz/announce
http://announce.torrentsmd.com:8080/announce
http://tracker.filetracker.pl:8089/announce
http://tracker.torrenty.org:6969/announce
http://tracker.filetracker.pl:8089/announce
udp://tracker.aletorrenty.pl:2710/announce
http://torrent.gresille.org/announce
http://retracker.telecom.kz/announce.php
http://exodus.desync.com/announce
udp://open.demonii.com:1337/announce
udp://tracker.blackunicorn.xyz:6969/announce
udp://glotorrents.pw:6969/announce
udp://inferno.demonoid.ph:3389/announce
udp://tracker.ccc.de:80/announce

UAKTUALNIENIE
19/01/2019 14:32:43 (Jeśeli nie widac seeda kliknij na [uaktualnij] by odswieżyć statystyki).
[Lub sprawdź programem do pobierania torrentów, ponieważ niektóre trackery nie wyświetlają statystyk]
10 pliki
 
KOMENTARZE


Brak komentarzy...

DODAJ KOMENTARZ

Zaloguj się aby dodawać komentarze !!!



Wstecz








WRÓĆ NA GÓRĘ