FileTracker.PL - Darmowe polskie torrenty

Witaj drogi Towarzyszu!, jeżeli widzisz ten dymek to znaczy że nie jesteś jeszcze zarejestrowany/zalogowany. Kliknij by się zarejestrować . Rejestracja zajmie mniej niż 30 sekund, a dzięki niej zyskasz możliwość pobierania, komentowania oraz dodawania torrentów !
User:  Hasło:     



Kategorie


Detale Torrenta


Narcos (2017) [Sezon 3] [WEB x264] [STRiFE] [ENG/SPA] [Napisy PL]

S: 0L: 1P: 125
Dodał: Don_RIAS Tracker:
Kondycja:Dodane:2019-07-25 10:11:38
Kategoria:Seriale  »  BiograficzneRozmiar:5.61 GB
Język:Napisy PL  Napisy PL------------------
Obserwuj:OBSERWUJ TORRENTAStaty:UAKTUALNIJ TRACKER
Download: Pobierz TorrentRaport:RAPORTUJ TORRENTA


Produkcja: USA, Kolumbia
Gatunek: Biograficzny, Dramat, Kryminał
Premiera:
Muzyka: Pedro Bromfman
Zdjęcia: Luis David Sansans, Mauricio Vidal

NAPISY


Kod:
Bułgarski,   Polski,   Czeski, Angielski, Hiszpański, Niemiecki, Francuski, Holenderski



Pablo Escobar (Wagner Moura) jest potężnym bossem kartelu narkotykowego z Medelin w Kolumbii. Jego działalność związana z handlem kokainą rozrasta się. Władze federalne USA stawiają sobie za cel zlikwidować nielegalną działalność Escobara.



Damián Alcázar .... Gilberto Rodríguez Orejuela
Francisco Denis .... Miguel Rodríguez Orejuela
Pedro Pascal .... Javier Peña
Juan Sebastián Calero .... Navegante
Alberto Ammann .... Pacho Herrera
Matias Varela .... Jorge Salcedo
Andrea Londo .... Maria Salazar
Taliana Vargas .... Paola Salcedo
Michael Stahl-David .... Chris Feistl
Matt Whelan .... Daniel Van Ness




Cytuje:
Complete name : narcos.s03e01.web.x264-strife.mkv
Format : Matroska
Format version : Version 4 / Version 2
File size : 519 MiB
Duration : 54mn 35s
Overall bit rate mode : Variable
Overall bit rate : 1 329 Kbps
Encoded date : UTC 2019-07-22 15:45:10
Writing application : mkvmerge v9.9.0 ('Pick Up') 32bit
Writing library : libebml v1.3.4 + libmatroska v1.4.5

Video
ID : 1
Format : AVC
Format/INFO : Advanced Video Codec
Format profile : Main@L3
Format settings, CABAC : Yes
Format settings, ReFrames : 3 frames
Codec ID : V_MPEG4/ISO/AVC
Duration : 54mn 35s
Bit rate mode : Variable
Bit rate : 1 210 Kbps
Maximum bit rate : 1 815 Kbps
Width : 720 pixels
Height : 480 pixels
Display aspect ratio : 16:9
Frame rate mode : Constant
Frame rate : 23.976 (24000/1001) fps
Color space : YUV
Chroma subsampling : 4:2:0
Bit depth : 8 bits
Scan type : Progressive
Bits/(Pixel*Frame) : 0.146
Stream size : 468 MiB (90%)
Writing library : x264 core 118
Encoding settings : cabac=1 / ref=3 / deblock=1:0:0 / analyse=0x1:0x111 / me=umh / subme=10 / psy=1 / psy_rd=1.00:0.00 / mixed_ref=1 / me_range=24 / chroma_me=1 / trellis=2 / 8x8dct=0 / cqm=0 / deadzone=21,11 / fast_pskip=1 / chroma_qp_offset=-2 / threads=8 / sliced_threads=0 / nr=0 / decimate=1 / interlaced=0 / bluray_compat=0 / constrained_intra=0 / bframes=2 / b_pyramid=0 / b_adapt=2 / b_bias=0 / direct=3 / weightb=1 / open_gop=0 / weightp=2 / keyint=48 / keyint_min=25 / scenecut=0 / intra_refresh=0 / rc_lookahead=0 / rc=2pass / mbtree=1 / bitrate=1210 / ratetol=1.0 / qcomp=0.50 / qpmin=6 / qpmax=51 / qpstep=4 / cplxblur=20.0 / qblur=0.5 / vbv_maxrate=1815 / vbv_bufsize=2420 / nal_hrd=vbr / ip_ratio=1.40 / aq=1:1.00
Default : Yes
Forced : No

Audio
ID : 2
Format : E-AC-3
Format/INFO : Audio Coding 3
Format settings, Endianness : Big
Codec ID : A_EAC3
Duration : 54mn 35s
Bit rate mode : Constant
Bit rate : 128 Kbps
Channel(s) : 2 channels
Channel positions : Front: L R
Sampling rate : 48.0 KHz
Frame rate : 187.500 fps (256 spf)
Compression mode : Lossy
Stream size : 50.0 MiB (10%)
Language : English
Default : Yes
Forced : No

Text #1
ID : 3
Format : UTF-8
Codec ID : S_TEXT/UTF8
Codec ID/INFO : UTF-8 Plain Text
Duration : 51mn 5s
Bit rate : 29 bps
Count of elements : 352
Stream size : 11.1 KiB (0%)
Title : Forced
Language : English
Default : Yes
Forced : Yes

Text #2
ID : 4
Format : UTF-8
Codec ID : S_TEXT/UTF8
Codec ID/INFO : UTF-8 Plain Text
Duration : 52mn 40s
Bit rate : 58 bps
Count of elements : 682
Stream size : 22.7 KiB (0%)
Language : English
Default : No
Forced : No

Text #3
ID : 5
Format : UTF-8
Codec ID : S_TEXT/UTF8
Codec ID/INFO : UTF-8 Plain Text
Duration : 54mn 4s
Bit rate : 48 bps
Count of elements : 597
Stream size : 19.4 KiB (0%)
Language : Dutch
Default : No
Forced : No

Text #4
ID : 6
Format : UTF-8
Codec ID : S_TEXT/UTF8
Codec ID/INFO : UTF-8 Plain Text
Duration : 53mn 19s
Bit rate : 50 bps
Count of elements : 593
Stream size : 19.6 KiB (0%)
Language : French
Default : No
Forced : No

Text #5
ID : 7
Format : UTF-8
Codec ID : S_TEXT/UTF8
Codec ID/INFO : UTF-8 Plain Text
Duration : 53mn 19s
Bit rate : 52 bps
Count of elements : 651
Stream size : 20.6 KiB (0%)
Language : German
Default : No
Forced : No

Text #6
ID : 8
Format : UTF-8
Codec ID : S_TEXT/UTF8
Codec ID/INFO : UTF-8 Plain Text
Duration : 53mn 19s
Bit rate : 56 bps
Count of elements : 684
Stream size : 22.0 KiB (0%)
Language : Spanish
Default : No
Forced : No

Text #7
ID : 9
Format : UTF-8
Codec ID : S_TEXT/UTF8
Codec ID/INFO : UTF-8 Plain Text
Duration : 53mn 10s
Bit rate : 93 bps
Count of elements : 652
Stream size : 36.6 KiB (0%)
Language : Bulgarian
Default : No
Forced : No

Text #8
ID : 10
Format : UTF-8
Codec ID : S_TEXT/UTF8
Codec ID/INFO : UTF-8 Plain Text
Duration : 53mn 2s
Bit rate : 52 bps
Count of elements : 622
Stream size : 20.5 KiB (0%)
Language : Polish
Default : No
Forced : No

Text #9
ID : 11
Format : UTF-8
Codec ID : S_TEXT/UTF8
Codec ID/INFO : UTF-8 Plain Text
Duration : 53mn 17s
Bit rate : 55 bps
Count of elements : 638
Stream size : 21.6 KiB (0%)
Language : Czech
Default : No
Forced : No




















====================================================

PODOBNE TORRENTY
The Standups *2017* [Sezon 01] [720p.WEBRip.x264-STRiFE] [Napisy PL] Narcos (2017) [Sezon 3] [720p] [NF] [WEB-DL] [2.0] [H264] [AC3-Ralf] [Lektor PL i Napisy PL] Narcos [S03E01] [720p] [WEB] [x264-STRiFE] [ENG] Narcos [S03E02] [1080p] [WEB] [x264-STRiFE] [ENG] Narcos [S03E02] [720p] [WEB] [x264-STRiFE] [ENG] Narcos [S03E03] [720p] [WEB] [x264-STRiFE] [ENG]
Szczegóły torrenta
TRACKER
Tracker Podstawowy: udp://tracker.opentrackr.org:1337/announce

Multitrackery:

udp://tracker.opentrackr.org:1337/announce
http://p2p-torrent.ga/announce.php?pid=b25d1a88159deed69a8cdfa89d78eef4
udp://tracker.internetwarriors.net:1337/announce
udp://tracker.coppersurfer.tk:6969/announce
udp://tracker.leechers-paradise.org:6969/announce
udp://tracker.torrent.eu.org:451/announce
udp://tracker.cyberia.is:6969/announce

UAKTUALNIENIE
26/09/2020 05:06:04 (Jeśeli nie widac seeda kliknij na [uaktualnij] by odswieżyć statystyki).
[Lub sprawdź programem do pobierania torrentów, ponieważ niektóre trackery nie wyświetlają statystyk]
12 pliki
 
KOMENTARZE


Brak komentarzy...

DODAJ KOMENTARZ

Zaloguj się aby dodawać komentarze !!!



Wstecz








WRÓĆ NA GÓRĘ