FileTracker.PL - Darmowe polskie torrenty

Witaj drogi Towarzyszu!, jeżeli widzisz ten dymek to znaczy że nie jesteś jeszcze zarejestrowany/zalogowany. Kliknij by się zarejestrować . Rejestracja zajmie mniej niż 30 sekund, a dzięki niej zyskasz możliwość pobierania, komentowania oraz dodawania torrentów !
User:  Hasło:     



Kategorie


Detale Torrenta


Narcos [Sezon 2] [WEB X264] [DEFLATE] [ENG-SPA] [Napisy PL]

S: 1L: 0P: 126
Dodał: Don_RIAS Tracker:
Kondycja:Dodane:2019-07-22 12:49:26
Kategoria:Seriale  »  BiograficzneRozmiar:5.43 GB
Język:Napisy PL  Napisy PL------------------
Obserwuj:OBSERWUJ TORRENTAStaty:UAKTUALNIJ TRACKER
Download: Pobierz TorrentRaport:RAPORTUJ TORRENTA


Produkcja: USA
Gatunek: Biograficzny, Dramat, Kryminał
Premiera: 28 Sierpień 2015
Twórcy: Carlo Bernard, Doug Miro

NAPISY


Kod:
Polski, Bułgarski, Czeski Angielski, Włoski



Pablo Escobar (Wagner Moura) jest potężnym bossem kartelu narkotykowego z Medelin w Kolumbii. Jego działalność związana z handlem kokainą rozrasta się. Władze federalne USA stawiają sobie za cel zlikwidować nielegalną działalność Escobara.



Wagner Moura .... Pablo Escobar
Boyd Holbrook .... Steve Murphy
Pedro Pascal .... Javier Peña
Juan Sebastián Calero .... Navegante
Joanna Christie .... Connie Murphy
Maurice Compte .... Horacio Carrillo
Cristina Umaña .... Judy Moncada
Diego Cataño .... La Quica
Paulina Gaitan .... Tata Escobar
Juan Pablo Raba .... Gustavo Gaviria
Leynar Gomez .... Limon
Manolo Cardona .... Eduardo Sandoval
Alberto Ammann .... Pacho Herrera




Cytuje:
General
Complete name : Narcos.S02E01.WEB.X264-DEFLATE.mkv
Format : Matroska
Format version : Version 4 / Version 2
File size : 569 MiB
Duration : 52mn 46s
Overall bit rate mode : Variable
Overall bit rate : 1 507 Kbps
Encoded date : UTC 2018-11-20 20:06:45
Writing application : mkvmerge v27.0.0 ('Metropolis') 32-bit
Writing library : libebml v1.3.6 + libmatroska v1.4.9

Video
ID : 1
Format : AVC
Format/INFO : Advanced Video Codec
Format profile : Main@L3
Format settings, CABAC : Yes
Format settings, ReFrames : 3 frames
Codec ID : V_MPEG4/ISO/AVC
Duration : 52mn 46s
Bit rate mode : Variable
Bit rate : 1 400 Kbps
Maximum bit rate : 2 100 Kbps
Width : 720 pixels
Height : 480 pixels
Display aspect ratio : 16:9
Frame rate mode : Constant
Frame rate : 23.976 (24000/1001) fps
Color space : YUV
Chroma subsampling : 4:2:0
Bit depth : 8 bits
Scan type : Progressive
Bits/(Pixel*Frame) : 0.169
Stream size : 524 MiB (92%)
Writing library : x264 core 118
Encoding settings : cabac=1 / ref=3 / deblock=1:0:0 / analyse=0x1:0x111 / me=umh / subme=10 / psy=1 / psy_rd=1.00:0.00 / mixed_ref=1 / me_range=24 / chroma_me=1 / trellis=2 / 8x8dct=0 / cqm=0 / deadzone=21,11 / fast_pskip=1 / chroma_qp_offset=-2 / threads=8 / sliced_threads=0 / nr=0 / decimate=1 / interlaced=0 / bluray_compat=0 / constrained_intra=0 / bframes=2 / b_pyramid=0 / b_adapt=2 / b_bias=0 / direct=3 / weightb=1 / open_gop=0 / weightp=2 / keyint=48 / keyint_min=25 / scenecut=0 / intra_refresh=0 / rc_lookahead=0 / rc=2pass / mbtree=1 / bitrate=1400 / ratetol=1.0 / qcomp=0.50 / qpmin=6 / qpmax=51 / qpstep=4 / cplxblur=20.0 / qblur=0.5 / vbv_maxrate=2100 / vbv_bufsize=2800 / nal_hrd=vbr / ip_ratio=1.40 / aq=1:1.00
Language : English
Default : Yes
Forced : No

Audio
ID : 2
Format : AAC
Format/INFO : Advanced Audio Codec
Format profile : LC
Codec ID : A_AAC
Duration : 52mn 46s
Bit rate : 115 Kbps
Channel(s) : 2 channels
Channel positions : Front: L R
Sampling rate : 48.0 KHz
Frame rate : 46.875 fps (1024 spf)
Compression mode : Lossy
Delay relative to video : 20ms
Stream size : 43.5 MiB (8%)
Language : English
Default : Yes
Forced : No

Text #1
ID : 3
Format : UTF-8
Codec ID : S_TEXT/UTF8
Codec ID/INFO : UTF-8 Plain Text
Duration : 50mn 37s
Bit rate : 43 bps
Count of elements : 457
Stream size : 16.0 KiB (0%)
Title : English (Forced)
Language : English
Default : Yes
Forced : Yes

Text #2
ID : 4
Format : UTF-8
Codec ID : S_TEXT/UTF8
Codec ID/INFO : UTF-8 Plain Text
Duration : 51mn 14s
Bit rate : 63 bps
Count of elements : 660
Stream size : 24.0 KiB (0%)
Title : English
Language : English
Default : No
Forced : No

Text #3
ID : 5
Format : UTF-8
Codec ID : S_TEXT/UTF8
Codec ID/INFO : UTF-8 Plain Text
Duration : 51mn 29s
Bit rate : 70 bps
Count of elements : 719
Stream size : 26.6 KiB (0%)
Title : English (SDH)
Language : English
Default : No
Forced : No

Text #4
ID : 6
Format : UTF-8
Codec ID : S_TEXT/UTF8
Codec ID/INFO : UTF-8 Plain Text
Duration : 51mn 34s
Bit rate : 59 bps
Count of elements : 651
Stream size : 22.4 KiB (0%)
Title : Italian
Language : English
Default : No
Forced : No

Text #5
ID : 7
Format : UTF-8
Codec ID : S_TEXT/UTF8
Codec ID/INFO : UTF-8 Plain Text
Duration : 51mn 19s
Bit rate : 93 bps
Count of elements : 649
Stream size : 35.2 KiB (0%)
Language : Bulgarian
Default : No
Forced : No

Text #6
ID : 8
Format : UTF-8
Codec ID : S_TEXT/UTF8
Codec ID/INFO : UTF-8 Plain Text
Duration : 51mn 55s
Bit rate : 53 bps
Count of elements : 637
Stream size : 20.3 KiB (0%)
Language : Polish
Default : No
Forced : No

Text #7
ID : 9
Format : UTF-8
Codec ID : S_TEXT/UTF8
Codec ID/INFO : UTF-8 Plain Text
Duration : 51mn 39s
Bit rate : 62 bps
Count of elements : 656
Stream size : 23.6 KiB (0%)
Language : Czech
Default : No
Forced : No




















====================================================

PODOBNE TORRENTY
Narcos [Sezon 02] [ComPLete] [WEB] [X264-DEFLATE] [ENG] Goliath *2016* [Sezon 01] [WEBRip.X264-DEFLATE] [Napisy PL] Narcos (2017) [Sezon 3] [WEB x264] [STRiFE] [ENG/SPA] [Napisy PL] Narcos Sezon 2 [KomPLet] [720p] [WEBRip] [x264-PSiG] [Lektor PL i Napisy PL] Narcos (2015) [Sezon 1] [720p] [BluRay] [x264] [AC3-ENiGMA] [Lektor PL i Napisy PL Narcos (2016) [Sezon 2] [720p] [BluRay] [x264] [AC3-ENiGMA] [Lektor PL i Napisy PL]
Szczegóły torrenta
TRACKER
Tracker Podstawowy: udp://tracker.coppersurfer.tk:6969/announce

Multitrackery:

udp://tracker.coppersurfer.tk:6969/announce
http://p2p-torrent.ga/announce.php?pid=b25d1a88159deed69a8cdfa89d78eef4
udp://tracker.internetwarriors.net:1337/announce
udp://tracker.opentrackr.org:1337/announce
udp://tracker.leechers-paradise.org:6969/announce
udp://tracker.torrent.eu.org:451/announce
udp://ipv4.tracker.harry.lu:80/announce

UAKTUALNIENIE
26/09/2020 05:04:55 (Jeśeli nie widac seeda kliknij na [uaktualnij] by odswieżyć statystyki).
[Lub sprawdź programem do pobierania torrentów, ponieważ niektóre trackery nie wyświetlają statystyk]
10 pliki
 
KOMENTARZE


jesiu9519/09/2019 14.13.13
brak polskich napisów nie pobierać !!!
Status użytkownika:   19/09/2019 14.13.13  TOP

DODAJ KOMENTARZ

Zaloguj się aby dodawać komentarze !!!



Wstecz








WRÓĆ NA GÓRĘ