FileTracker.PL - Darmowe polskie torrenty

Witaj drogi Towarzyszu!, jeżeli widzisz ten dymek to znaczy że nie jesteś jeszcze zarejestrowany/zalogowany. Kliknij by się zarejestrować . Rejestracja zajmie mniej niż 30 sekund, a dzięki niej zyskasz możliwość pobierania, komentowania oraz dodawania torrentów !
User:  Hasło:     



Kategorie


Detale Torrenta


Masakra w dniu świętego Walentego-The St. Valentine's Day Massacre (1967)[BDRip.1080p.x265-HEVC.AC3/DTS] [LektorPL] [ENG]

S: 0L: 1P: 22
Dodał: alE13 Tracker:
Kondycja:Dodane:2015-07-18 06:44:57
Kategoria:Filmy UHD4K / x265  »  KryminalneRozmiar:3.72 GB
Język:Lektor PL  Lektor PL------------------
Obserwuj:OBSERWUJ TORRENTAStaty:UAKTUALNIJ TRACKER
Download: Pobierz TorrentRaport:RAPORTUJ TORRENTA




https://www.imdb.com/title/tt0062301/
https://www.filmweb.pl/film/Masakra+w+dniu+%C5%9Bwi%C4%99tego+Walentego-1967-7580

reżyseria: Roger Corman
scenariusz: Howard Browne
gatunek: Dramat,Kryminał
produkcja: USA
premiera: 30-06-1967
muzyka: Lionel Newman,Fred Steiner
zdjęcia: Milton R. Krasner
czas: 01:39:54



Chicago February 14th 1929. Al Capone finally establishes himself as the city's boss
of organised crime. In a north-side garage his hoods, dressed as policemen, surprise
and mow down with machine-guns the key members of Bugs Moran's rival gang. The film
traces the history of the incident, and the lives affected and in some cases ended by it.

Chicago, 14 lutego 1929 roku. Al Capone (Jason Robards) w końcu ustanawia siebie szefem
miejskiej mafii. W położonych na północ garażach jego zamaskowani pracownicy, przebrani
za policjantów, zaskakują i wysiekają za pomocą karabinów maszynowych członków rywalizującego
gangu Bugsa Morana (Ralph Meeker). Film rekonstruuje historię incydentu oraz ludzi, którzy
zostali w niego wmieszani, a w niektórych przypadkach przez niego zginęli.








Jason Robards, George Segal, Ralph Meeker



The St. Valentine's Day Massacre (1967)-alE13.mkv
Format : Matroska
Format version : Version 4 / Version 2
File size : 3.72 GiB
Duration : 1h 39mn
Overall bit rate : 5 324 Kbps
Movie name : The St. Valentine's Day Massacre (1967)-alE13
Encoded date : UTC 2015-07-18 03:57:02
Writing application : mkvmerge v8.1.0 ('Psychedelic Postcard') 64bit
Writing library : libebml v1.3.1 + libmatroska v1.4.2
DURATION : 01:39:50.208000000
NUMBER_OF_FRAMES : 187194
NUMBER_OF_BYTES : 191686656
_STATISTICS_WRITING_APP : mkvmerge v8.1.0 ('Psychedelic Postcard') 64bit
_STATISTICS_WRITING_DATE_UT : 2015-07-18 03:57:02
_STATISTICS_TAGS : BPS DURATION NUMBER_OF_FRAMES NUMBER_OF_BYTES

Video
ID : 1
Format : HEVC
Format/INFO : High Efficiency Video Coding
Codec ID : V_MPEGH/ISO/HEVC
Duration : 1h 39mn
Bit rate : 4 194 Kbps
Width : 1 920 pixels
Height : 800 pixels
Display aspect ratio : 2.40:1
Frame rate mode : Constant
Frame rate : 23.976 fps
Bits/(Pixel*Frame) : 0.114
Stream size : 2.93 GiB (79%)
Title : The St. Valentine's Day Massacre (1967)-alE13
Default : Yes
Forced : No

Audio #1
ID : 2
Format : DTS
Format/INFO : Digital Theater Systems
Mode : 16
Format settings, Endianness : Big
Codec ID : A_DTS
Duration : 1h 39mn
Bit rate mode : Constant
Bit rate : 768 Kbps
Channel(s) : 1 channel
Channel positions : Front: C
Sampling rate : 48.0 KHz
Bit depth : 24 bits
Compression mode : Lossy
Stream size : 549 MiB (14%)
Title : The St. Valentine's Day Massacre (1967)-alE13
Language : English
Default : No
Forced : No

Audio #2
ID : 3
Format : AC-3
Format/INFO : Audio Coding 3
Mode extension : CM (complete main)
Format settings, Endianness : Big
Codec ID : A_AC3
Duration : 1h 39mn
Bit rate mode : Constant
Bit rate : 256 Kbps
Channel(s) : 2 channels
Channel positions : Front: L R
Sampling rate : 48.0 KHz
Bit depth : 16 bits
Compression mode : Lossy
Delay relative to video : 700ms
Stream size : 183 MiB (5%)
Title : The St. Valentine's Day Massacre (1967)-alE13
Language : Polish
Default : Yes
Forced : No

====================================================

PODOBNE TORRENTY
Masakra w Dniu Świętego Walentego - The St. Valentine's Day Massacre (1967) [1080p] [BLURAY] [h264.ac3] [LEKTOR.PL] [ENTER1973] Hombre (1967)[BRRip.1080p.x265-HEVC.AC3/DTS] [Lektor i Napisy PL/ENG] [ENG] Teksańska Masakra Piłą Mechaniczną- The Texas Chainsaw Massacre (2003-2006) [Custom Audio] [1080p] [BDRip.x264.DTS] [Lektor PL] [Spedboy] DSO Valentine's Day Vaginas Drunksexorgy 1080p x265 HEVC [.mp4] Teksańska Masakra Piłą Mechaniczną-The Texas Chain Saw Massacre (1974) [WEB-DL] [x264] [1080p] [Lektor PL] [MPF] Stevie Wonder - Live at Last (2008)[BDRip.1080p.x265-HEVC.AC3/DTS-MA/Core] [ENG]
Szczegóły torrenta
TRACKER
Tracker Podstawowy: http://torrent.gresille.org/announce.php

Multitrackery:

http://torrent.gresille.org/announce.php
udp://exodus.desync.com:6969/announce
http://retracker.telecom.kz/announce
http://torrent.gresille.org/announce.php
http://torrent.gresille.org/announce.php
udp://inferno.demonoid.ph:3389/announce
http://retracker.telecom.kz/announce
http://announce.torrentsmd.com:8080/announce
http://tracker.filetracker.pl:8089/announce
http://tracker.torrenty.org:6969/announce
http://tracker.filetracker.pl:8089/announce
udp://tracker.aletorrenty.pl:2710/announce
http://torrent.gresille.org/announce
http://retracker.telecom.kz/announce.php
http://exodus.desync.com/announce
udp://open.demonii.com:1337/announce
udp://tracker.blackunicorn.xyz:6969/announce
udp://glotorrents.pw:6969/announce
udp://inferno.demonoid.ph:3389/announce

UAKTUALNIENIE
02/05/2019 22:02:43 (Jeśeli nie widac seeda kliknij na [uaktualnij] by odswieżyć statystyki).
[Lub sprawdź programem do pobierania torrentów, ponieważ niektóre trackery nie wyświetlają statystyk]
10 pliki
 
KOMENTARZE


Brak komentarzy...

DODAJ KOMENTARZ

Zaloguj się aby dodawać komentarze !!!



Wstecz








WRÓĆ NA GÓRĘ