FileTracker.PL - Darmowe polskie torrenty

Witaj drogi Towarzyszu!, jeżeli widzisz ten dymek to znaczy że nie jesteś jeszcze zarejestrowany/zalogowany. Kliknij by się zarejestrować . Rejestracja zajmie mniej niż 30 sekund, a dzięki niej zyskasz możliwość pobierania, komentowania oraz dodawania torrentów !
User:  Hasło:     



Kategorie


Detale Torrenta


Helikopter w ogniu / Black Hawk Down (2001) [EXTENDED.2160p.UHD.BluRay.X265.10bit.HDR.TrueHD.7.1.Atmos-TERMiNAL] [Napisy PL]

S: 0L: 0P: 75
Dodał: skakun11 Tracker:
Kondycja:Dodane:2019-05-01 17:10:16
Kategoria:Filmy UHD4K / x265  »  WojenneRozmiar:44.73 GB
Język:Napisy PL  Napisy PL------------------
Obserwuj:OBSERWUJ TORRENTAStaty:UAKTUALNIJ TRACKER
Download: Pobierz TorrentRaport:RAPORTUJ TORRENTA
..::INFO::..

Produkcja: USA, Wielka Brytania
Gatunek: Dramat, Wojenny
Premiera: 22 marca 2002 (Polska), 18 grudnia 2001 (świat)
Reżyseria: Ridley Scott
Scenariusz: Ken Nolan

..::OPIS::..

Film oparty na faktach, opowiada historię operacji wojskowej przeprowadzonej przez siły amerykańskie na terenie Somalii. Elitarna jednostka ma za zadanie porwać dwóch przywódców zbuntowanych Somalijczyków. Prosta akcja przewidziana na 30 minut, a jednak coś idzie nie tak jak powinno... Zostają zestrzelone 2 amerykańskie helikoptery. I tu zaczynają się kłopoty, bo okazuje się, że jednostki wysłane na ratunek zestrzelonym żołnierzom mają przeciwko sobie dobrze uzbrojony tłum Somalijczyków broniących swojego terytorium przed obcą interwencją.

..::OBSADA::..

Josh Hartnett .... Sierżant sztabowy Matt Eversmann
Ewan McGregor .... Specjalista John "Grimesey" Grimes
Tom Sizemore .... Podpułkownik Danny McKnight
Eric Bana .... Starszy sierżant Norm "Hoot" Hooten
William Fichtner .... Sierżant Jeff Sanderson
Ewen Bremner .... Specjalista Shawn Nelson
Sam Shepard .... Generał dywizji William Garrison
Jason Isaacs .... Kapitan Mike Steele

..::DANE-TECH::..

Video
ID : 1
Format : HEVC
Format/INFO : High Efficiency Video Coding
Commercial name : HDR10
Format profile : Main 10@L5.1@High
Codec ID : V_MPEGH/ISO/HEVC
Duration : 2 h 31 min
Bit rate : 37.2 Mb/s
Width : 3 840 pixels
Height : 1 600 pixels
Display aspect ratio : 2.40:1
Frame rate mode : Constant
Frame rate : 23.976 (24000/1001) FPS
Color space : YUV
Chroma subsampling : 4:2:0 (Type 2)
Bit depth : 10 bits
Bits/(Pixel*Frame) : 0.252
Stream size : 39.4 GiB (88%)
Writing library : x265 3.0_Au+14-c7e5878bdd31:[Windows][GCC 6.3.0][64 bit] 10bit
Encoding settings : cpuid=1111039 / frame-threads=4 / numa-pools=20 / wpp / no-pmode / no-pme / no-psnr / no-ssim / log-level=2 / input-csp=1 / input-res=3840x1600 / interlace=0 / total-frames=218436 / level-idc=51 / high-tier=1 / uhd-bd=0 / ref=4 / no-allow-non-conformance / repeat-headers / annexb / aud / hrd / INFO / hash=0 / no-temporal-layers / no-open-gop / min-keyint=1 / keyint=24 / gop-lookahead=0 / bframes=4 / b-adapt=2 / b-pyramid / bframe-bias=0 / rc-lookahead=25 / lookahead-slices=4 / scenecut=40 / radl=0 / no-splice / no-intra-refresh / ctu=64 / min-cu-size=8 / rect / no-amp / max-tu-size=32 / tu-inter-depth=1 / tu-intra-depth=1 / limit-tu=0 / rdoq-level=2 / dynamic-rd=0.00 / no-ssim-rd / signhide / no-tskip / nr-intra=0 / nr-inter=0 / no-constrained-intra / no-strong-intra-smoothing / max-merge=3 / limit-refs=3 / limit-modes / me=3 / subme=3 / merange=57 / temporal-mvp / weightp / no-weightb / no-analyze-src-pics / deblock=-3:-3 / no-sao / no-sao-non-deblock / rd=4 / no-early-skip / rskip / no-fast-intra / no-tskip-fast / no-cu-lossless / no-b-intra / no-splitrd-skip / rdpenalty=0 / psy-rd=2.00 / psy-rdoq=1.00 / no-rd-refine / no-lossless / cbqpoffs=0 / crqpoffs=0 / rc=crf / crf=19.0 / qcomp=0.60 / qpstep=4 / stats-write=0 / stats-read=0 / vbv-maxrate=160000 / vbv-bufsize=160000 / vbv-init=0.9 / crf-max=0.0 / crf-min=0.0 / ipratio=1.40 / pbratio=1.30 / aq-mode=2 / aq-strength=1.00 / cutree / zone-count=0 / no-strict-cbr / qg-size=32 / no-rc-grain / qpmax=69 / qpmin=0 / no-const-vbv / sar=1 / overscan=0 / videoformat=5 / range=0 / colorprim=9 / transfer=16 / colormatrix=9 / chromaloc=1 / chromaloc-top=2 / chromaloc-bottom=2 / display-window=0 / master-display=G(13250,34500)B(7500,3000)R(34000,16000)WP(15635,16450)L(40000000,50) / max-cll=4000,1391 / min-luma=0 / max-luma=1023 / log2-max-poc-lsb=8 / vui-timing-INFO / vui-hrd-INFO / slices=1 / no-opt-qp-pps / no-opt-ref-list-length-pps / no-multi-pass-opt-rps / scenecut-bias=0.05 / no-opt-cu-delta-qp / no-aq-motion / hdr / hdr-opt / no-dhdr10-opt / no-idr-recovery-sei / analysis-reuse-level=5 / scale-factor=0 / refine-intra=0 / refine-inter=0 / refine-mv=0 / refine-ctu-distortion=0 / no-limit-sao / ctu-INFO=0 / no-lowpass-dct / refine-analysis-type=0 / copy-pic=1 / max-ausize-factor=1.0 / no-dynamic-refine / no-single-sei / no-hevc-aq / no-svt / qp-adaptation-range=1.00
Default : Yes
Forced : No
Color range : Limited
Color primaries : BT.2020
Transfer characteristics : PQ
Matrix coefficients : BT.2020 non-constant
Mastering display color primaries : Display P3
Mastering display luminance : min: 0.0050 cd/m2, max: 4000 cd/m2
Maximum Content Light Level : 4000 cd/m2
Maximum Frame-Average Light Level : 1391 cd/m2

Audio #1
ID : 2
Format : MLP FBA 16-ch
Format/INFO : Meridian Lossless Packing FBA with 16-channel presentation
Commercial name : Dolby TrueHD with Dolby Atmos
Codec ID : A_TRUEHD
Duration : 2 h 31 min
Bit rate mode : Variable
Bit rate : 3 947 kb/s
Maximum bit rate : 6 000 kb/s
Channel(s) : 8 channels
Channel layout : L R C LFE Ls Rs Lb Rb
Sampling rate : 48.0 kHz
Frame rate : 1 200.000 FPS (40 SPF)
Compression mode : Lossless
Stream size : 4.19 GiB (9%)
Language : English
Default : Yes
Forced : No
Number of dynamic objects : 11
Bed channel count : 1 channel
Bed channel configuration : LFE

Audio #2
ID : 3
Format : AC-3
Format/INFO : Audio Coding 3
Commercial name : Dolby Digital
Codec ID : A_AC3
Duration : 2 h 31 min
Bit rate mode : Constant
Bit rate : 640 kb/s
Channel(s) : 6 channels
Channel layout : L R C LFE Ls Rs
Sampling rate : 48.0 kHz
Frame rate : 31.250 FPS (1536 SPF)
Bit depth : 16 bits
Compression mode : Lossy
Stream size : 695 MiB (2%)
Language : English
Service kind : Complete Main
Default : No
Forced : No

Text #1
ID : 4
Format : UTF-8
Codec ID : S_TEXT/UTF8
Codec ID/INFO : UTF-8 Plain Text
Duration : 1 h 50 min
Bit rate : 0 b/s
Count of elements : 12
Stream size : 238 Bytes (0%)
Title : English Forced
Language : English
Default : Yes
Forced : Yes

Text #2
ID : 5
Format : PGS
Muxing mode : zlib
Codec ID : S_HDMV/PGS
Codec ID/INFO : Picture based subtitle format used on BDs/HD-DVDs
Duration : 2 h 30 min
Bit rate : 35.7 kb/s
Count of elements : 3862
Stream size : 38.3 MiB (0%)
Title : English SDH
Language : English
Default : No
Forced : No

Text #3
ID : 6
Format : PGS
Muxing mode : zlib
Codec ID : S_HDMV/PGS
Codec ID/INFO : Picture based subtitle format used on BDs/HD-DVDs
Duration : 2 h 20 min
Bit rate : 31.5 kb/s
Count of elements : 3226
Stream size : 31.6 MiB (0%)
Language : English
Default : No
Forced : No

Text #4
ID : 7
Format : PGS
Muxing mode : zlib
Codec ID : S_HDMV/PGS
Codec ID/INFO : Picture based subtitle format used on BDs/HD-DVDs
Duration : 2 h 26 min
Bit rate : 16.2 kb/s
Count of elements : 3104
Stream size : 16.9 MiB (0%)
Language : Arabic
Default : No
Forced : No

Text #5
ID : 8
Format : PGS
Muxing mode : zlib
Codec ID : S_HDMV/PGS
Codec ID/INFO : Picture based subtitle format used on BDs/HD-DVDs
Duration : 2 h 26 min
Bit rate : 28.8 kb/s
Count of elements : 3104
Stream size : 30.1 MiB (0%)
Language : Bulgarian
Default : No
Forced : No

Text #6
ID : 9
Format : PGS
Muxing mode : zlib
Codec ID : S_HDMV/PGS
Codec ID/INFO : Picture based subtitle format used on BDs/HD-DVDs
Duration : 2 h 26 min
Bit rate : 20.2 kb/s
Count of elements : 3093
Stream size : 21.1 MiB (0%)
Language : Chinese
Default : No
Forced : No

Text #7
ID : 10
Format : PGS
Muxing mode : zlib
Codec ID : S_HDMV/PGS
Codec ID/INFO : Picture based subtitle format used on BDs/HD-DVDs
Duration : 2 h 26 min
Bit rate : 26.1 kb/s
Count of elements : 2899
Stream size : 27.3 MiB (0%)
Language : Croatian
Default : No
Forced : No

Text #8
ID : 11
Format : PGS
Muxing mode : zlib
Codec ID : S_HDMV/PGS
Codec ID/INFO : Picture based subtitle format used on BDs/HD-DVDs
Duration : 2 h 26 min
Bit rate : 27.2 kb/s
Count of elements : 3074
Stream size : 28.4 MiB (0%)
Language : Czech
Default : No
Forced : No

Text #9
ID : 12
Format : PGS
Muxing mode : zlib
Codec ID : S_HDMV/PGS
Codec ID/INFO : Picture based subtitle format used on BDs/HD-DVDs
Duration : 2 h 26 min
Bit rate : 28.8 kb/s
Count of elements : 3085
Stream size : 30.1 MiB (0%)
Language : Danish
Default : No
Forced : No

Text #10
ID : 13
Format : PGS
Muxing mode : zlib
Codec ID : S_HDMV/PGS
Codec ID/INFO : Picture based subtitle format used on BDs/HD-DVDs
Duration : 2 h 26 min
Bit rate : 30.1 kb/s
Count of elements : 3050
Stream size : 31.4 MiB (0%)
Language : Dutch
Default : No
Forced : No

Text #11
ID : 14
Format : PGS
Muxing mode : zlib
Codec ID : S_HDMV/PGS
Codec ID/INFO : Picture based subtitle format used on BDs/HD-DVDs
Duration : 2 h 26 min
Bit rate : 29.2 kb/s
Count of elements : 3027
Stream size : 30.5 MiB (0%)
Language : Finnish
Default : No
Forced : No

Text #12
ID : 15
Format : PGS
Muxing mode : zlib
Codec ID : S_HDMV/PGS
Codec ID/INFO : Picture based subtitle format used on BDs/HD-DVDs
Duration : 2 h 30 min
Bit rate : 23.0 kb/s
Count of elements : 2848
Stream size : 24.7 MiB (0%)
Language : French
Default : No
Forced : No

Text #13
ID : 16
Format : PGS
Muxing mode : zlib
Codec ID : S_HDMV/PGS
Codec ID/INFO : Picture based subtitle format used on BDs/HD-DVDs
Duration : 2 h 26 min
Bit rate : 30.5 kb/s
Count of elements : 3062
Stream size : 31.8 MiB (0%)
Language : Greek
Default : No
Forced : No

Text #14
ID : 17
Format : PGS
Muxing mode : zlib
Codec ID : S_HDMV/PGS
Codec ID/INFO : Picture based subtitle format used on BDs/HD-DVDs
Duration : 2 h 26 min
Bit rate : 22.3 kb/s
Count of elements : 3108
Stream size : 23.3 MiB (0%)
Language : Hindi
Default : No
Forced : No

Text #15
ID : 18
Format : PGS
Muxing mode : zlib
Codec ID : S_HDMV/PGS
Codec ID/INFO : Picture based subtitle format used on BDs/HD-DVDs
Duration : 2 h 26 min
Bit rate : 30.2 kb/s
Count of elements : 3140
Stream size : 31.5 MiB (0%)
Language : Hungarian
Default : No
Forced : No

Text #16
ID : 19
Format : PGS
Muxing mode : zlib
Codec ID : S_HDMV/PGS
Codec ID/INFO : Picture based subtitle format used on BDs/HD-DVDs
Duration : 2 h 26 min
Bit rate : 28.2 kb/s
Count of elements : 3049
Stream size : 29.4 MiB (0%)
Language : Italian
Default : No
Forced : No

Text #17
ID : 20
Format : PGS
Muxing mode : zlib
Codec ID : S_HDMV/PGS
Codec ID/INFO : Picture based subtitle format used on BDs/HD-DVDs
Duration : 2 h 26 min
Bit rate : 14.9 kb/s
Count of elements : 3103
Stream size : 15.6 MiB (0%)
Language : Korean
Default : No
Forced : No

Text #18
ID : 21
Format : PGS
Muxing mode : zlib
Codec ID : S_HDMV/PGS
Codec ID/INFO : Picture based subtitle format used on BDs/HD-DVDs
Duration : 2 h 26 min
Bit rate : 27.6 kb/s
Count of elements : 3094
Stream size : 28.8 MiB (0%)
Language : Norwegian
Default : No
Forced : No

Text #19
ID : 22
Format : PGS
Muxing mode : zlib
Codec ID : S_HDMV/PGS
Codec ID/INFO : Picture based subtitle format used on BDs/HD-DVDs
Duration : 2 h 30 min
Bit rate : 28.4 kb/s
Count of elements : 3100
Stream size : 30.6 MiB (0%)
Language : Polish
Default : No
Forced : No

Text #20
ID : 23
Format : PGS
Muxing mode : zlib
Codec ID : S_HDMV/PGS
Codec ID/INFO : Picture based subtitle format used on BDs/HD-DVDs
Duration : 2 h 26 min
Bit rate : 28.1 kb/s
Count of elements : 2698
Stream size : 29.4 MiB (0%)
Language : Portuguese
Default : No
Forced : No

Text #21
ID : 24
Format : PGS
Muxing mode : zlib
Codec ID : S_HDMV/PGS
Codec ID/INFO : Picture based subtitle format used on BDs/HD-DVDs
Duration : 2 h 26 min
Bit rate : 28.6 kb/s
Count of elements : 3176
Stream size : 29.9 MiB (0%)
Language : Romanian
Default : No
Forced : No

Text #22
ID : 25
Format : PGS
Muxing mode : zlib
Codec ID : S_HDMV/PGS
Codec ID/INFO : Picture based subtitle format used on BDs/HD-DVDs
Duration : 2 h 26 min
Bit rate : 28.4 kb/s
Count of elements : 3088
Stream size : 29.7 MiB (0%)
Language : Russian
Default : No
Forced : No

Text #23
ID : 26
Format : PGS
Muxing mode : zlib
Codec ID : S_HDMV/PGS
Codec ID/INFO : Picture based subtitle format used on BDs/HD-DVDs
Duration : 2 h 30 min
Bit rate : 23.1 kb/s
Count of elements : 2891
Stream size : 24.9 MiB (0%)
Language : Slovenian
Default : No
Forced : No

Text #24
ID : 27
Format : PGS
Muxing mode : zlib
Codec ID : S_HDMV/PGS
Codec ID/INFO : Picture based subtitle format used on BDs/HD-DVDs
Duration : 2 h 26 min
Bit rate : 31.2 kb/s
Count of elements : 3270
Stream size : 32.6 MiB (0%)
Language : Spanish
Default : No
Forced : No

Text #25
ID : 28
Format : PGS
Muxing mode : zlib
Codec ID : S_HDMV/PGS
Codec ID/INFO : Picture based subtitle format used on BDs/HD-DVDs
Duration : 2 h 26 min
Bit rate : 29.8 kb/s
Count of elements : 3117
Stream size : 31.1 MiB (0%)
Language : Spanish
Default : No
Forced : No

Text #26
ID : 29
Format : PGS
Muxing mode : zlib
Codec ID : S_HDMV/PGS
Codec ID/INFO : Picture based subtitle format used on BDs/HD-DVDs
Duration : 2 h 30 min
Bit rate : 28.4 kb/s
Count of elements : 3115
Stream size : 30.6 MiB (0%)
Language : Swedish
Default : No
Forced : No

Text #27
ID : 30
Format : PGS
Muxing mode : zlib
Codec ID : S_HDMV/PGS
Codec ID/INFO : Picture based subtitle format used on BDs/HD-DVDs
Duration : 2 h 26 min
Bit rate : 19.3 kb/s
Count of elements : 3089
Stream size : 20.1 MiB (0%)
Language : Thai
Default : No
Forced : No

Text #28
ID : 31
Format : PGS
Muxing mode : zlib
Codec ID : S_HDMV/PGS
Codec ID/INFO : Picture based subtitle format used on BDs/HD-DVDs
Duration : 2 h 26 min
Bit rate : 29.1 kb/s
Count of elements : 3076
Stream size : 30.4 MiB (0%)
Language : Turkish
Default : No
Forced : No

Text #29
ID : 32
Format : PGS
Muxing mode : zlib
Codec ID : S_HDMV/PGS
Codec ID/INFO : Picture based subtitle format used on BDs/HD-DVDs
Duration : 2 h 30 min
Bit rate : 3 421 b/s
Count of elements : 382
Stream size : 3.68 MiB (0%)
Language : French
Default : No
Forced : No

Menu
00:00:00.000 : :Chapter 01
00:21:48.682 : :Chapter 02
00:31:40.315 : :Chapter 03
00:39:19.941 : :Chapter 04
00:43:25.519 : :Chapter 05
00:54:04.074 : :Chapter 06
01:02:18.359 : :Chapter 07
01:10:22.051 : :Chapter 08
01:28:36.811 : :Chapter 09
01:30:26.295 : :Chapter 10
01:43:36.043 : :Chapter 11
01:48:49.773 : :Chapter 12
02:02:18.914 : :Chapter 13
02:06:20.864 : :Chapter 14
02:11:28.630 : :Chapter 15
02:20:13.363 : :Chapter 16

====================================================

PODOBNE TORRENTY
Helikopter w ogniu / Black Hawk Down (2001) [EXTENDED.2160p.BluRay.HEVC.TrueHD.7.1.Atmos-TERMiNAL] [Lektor i Napisy PL] Helikopter w ogniu / Black Hawk Down *2001* [EXTENDED] [4K.2160p.BDRemux.HEVC.10bit.HDR.TrueHD.7.1.Atmos-p78] [Lektor & Napisy PL] [ENG] Rocketman (2019) [2160p.UHD.BluRay.X265.10bit.HDR.TrueHD.7.1.Atmos-TERMiNAL] [Napisy PL] Zew krwi - The Call of the Wild *2020* [2160p] [UHD] [BluRay] [X265.10bit.HDR.TrueHD.7.1.Atmos-TERMiNAL] [Napisy PL] [zibi6248] Resident Evil: Afterlife (2010) [2160p] [BluRay] [x265] [10bit] [HDR] [TrueHD] [7 1 Atmos] [TERMiNAL] [ENG] Helikopter W Ogniu (Wersja Rozszerzona)- Black Hawk Down (Extended Cut) [2001] [Custom Audio] [1080p] [UHDRip.x264.DTS] [Lektor PL] [Spedboy]
Szczegóły torrenta
TRACKER
Tracker Podstawowy: http://tracker.trackerfix.com:80/announce

Multitrackery:

http://tracker.trackerfix.com:80/announce
udp://9.rarbg.me:2760/announce
udp://9.rarbg.to:2790/announce

UAKTUALNIENIE
08/10/2020 12:12:57 (Jeśeli nie widac seeda kliknij na [uaktualnij] by odswieżyć statystyki).
[Lub sprawdź programem do pobierania torrentów, ponieważ niektóre trackery nie wyświetlają statystyk]
4 pliki
 
KOMENTARZE


Brak komentarzy...

DODAJ KOMENTARZ

Zaloguj się aby dodawać komentarze !!!



Wstecz








WRÓĆ NA GÓRĘ