FileTracker.PL - Darmowe polskie torrenty

Witaj drogi Towarzyszu!, jeżeli widzisz ten dymek to znaczy że nie jesteś jeszcze zarejestrowany/zalogowany. Kliknij by się zarejestrować . Rejestracja zajmie mniej niż 30 sekund, a dzięki niej zyskasz możliwość pobierania, komentowania oraz dodawania torrentów !
User:  Hasło:     



Kategorie


Detale Torrenta


The Meg (2018) [1080p] [3D] [BluRay.Half-SBS.x264.TrueHD.7.1.Atmos-FGT] [Lektor i Napisy PL]

S: 0L: 0P: 126
Dodał: skakun11 Tracker:
Kondycja:Dodane:2019-04-14 17:20:29
Kategoria:Filmy 3D / SBS  »  HorroryRozmiar:18.64 GB
Język:Lektor PL  Lektor PL------------------
Obserwuj:OBSERWUJ TORRENTAStaty:UAKTUALNIJ TRACKER
Download: Pobierz TorrentRaport:RAPORTUJ TORRENTA
The.Meg.2018.1080p.3D.BluRay.Half-SBS.x264.TrueHD.7.1.Atmos-FGT

INFO:

Produkcja: Chiny, USA
Gatunek: Horror, Akcja, Sci-Fi
Premiera: 24 sierpnia 2018 (Polska), 8 sierpnia 2018 (świat)
Reżyseria: Jon Turteltaub
Scenariusz: Dean Georgaris, Erich Hoeber

OPIS:

Pięć lat wcześniej ekspert od nurkowania, komandor Jonas Taylor, napotkał nieznane zagrożenie w niezbadanych głębinach Rowu Mariańskiego, które zmusiło go do przerwania wykonywanej misji i pozostawienia części swojej załogi. To tragiczne w skutkach zdarzenie doprowadziło do jego zwolnienia ze służby w atmosferze skandalu. Jednak tym, co ostatecznie zrujnowało jego karierę, małżeństwo i odebrało mu reszki honoru, była niczym niepoparta, niewiarygodna historia o przyczynie katastrofy. Taylor utrzymywał, że jego jednostkę zaatakowało gigantyczne, ponad 20-metrowe stworzenie, którego gatunek miał wyginąć ponad milion lat temu. Jednak kiedy na dnie oceanu osiada uszkodzona łódź podwodna z byłą żoną komandora pośród członków załogi, to właśnie on otrzymuje telefon. Chwytając szansę przywrócenia dobrego imienia czy też porywając się na samobójczą misję, Jonas musi stawić czoła swoim lękom i zaryzykować życie swoje oraz każdego członka załogi uwięzionego w głębinach, zadając sobie jedno pytanie: Czy to możliwe, że Carcharodon Megalodon — największy morski drapieżnik, jaki kiedykolwiek istniał, nadal żyje... i poluje na kolejne ofiary?

OBSADA:

Jason Statham .... Jonas Taylor
Bingbing Li .... Suyin
Rainn Wilson .... Morris
Cliff Curtis .... Mac
Winston Chao .... Zhang
Shuya Sophia Cai .... Meiying
Ruby Rose .... Jaxx
Page Kennedy .... DJ


DANE TECH:

Video
ID : 1
Format : AVC
Format/INFO : Advanced Video Codec
Format profile : [email protected]
Format settings : CABAC / 3 Ref Frames
Format settings, CABAC : Yes
Format settings, ReFrames : 3 frames
Codec ID : V_MPEG4/ISO/AVC
Duration : 1 h 53 min
Bit rate : 15.5 Mb/s
Width : 1 920 pixels
Height : 1 080 pixels
Display aspect ratio : 16:9
Frame rate mode : Constant
Frame rate : 23.976 (24000/1001) FPS
Color space : YUV
Chroma subsampling : 4:2:0
Bit depth : 8 bits
Scan type : Progressive
Bits/(Pixel*Frame) : 0.312
Stream size : 11.8 GiB (63%)
Title : The.Meg.2018.1080p.3D.BluRay.Half-SBS.x264.TrueHD.7.1.Atmos-FGT
Writing library : x264 core 148
Encoding settings : cabac=1 / ref=3 / deblock=1:-1:-1 / analyse=0x3:0 / me=hex / subme=5 / psy=1 / psy_rd=1.00:0.00 / mixed_ref=0 / me_range=16 / chroma_me=1 / trellis=1 / 8x8dct=1 / cqm=0 / deadzone=21,11 / fast_pskip=0 / chroma_qp_offset=0 / threads=24 / lookahead_threads=6 / sliced_threads=0 / nr=0 / decimate=1 / interlaced=0 / bluray_compat=0 / constrained_intra=0 / bframes=2 / b_pyramid=0 / b_adapt=1 / b_bias=0 / direct=1 / weightb=0 / open_gop=0 / weightp=0 / keyint=24 / keyint_min=2 / scenecut=40 / intra_refresh=0 / rc=abr / mbtree=0 / bitrate=15500 / ratetol=1.0 / qcomp=0.60 / qpmin=0 / qpmax=69 / qpstep=4 / ip_ratio=1.40 / pb_ratio=1.30 / aq=1:1.00
Default : Yes
Forced : No
Color range : Limited
Color primaries : BT.709
Transfer characteristics : BT.709
Matrix coefficients : BT.709

Audio #1
ID : 2
Format : MLP FBA 16-ch
Format/INFO : Meridian Lossless Packing FBA with 16-channel presentation
Commercial name : Dolby TrueHD with Dolby Atmos
Codec ID : A_TRUEHD
Duration : 1 h 53 min
Bit rate mode : Variable
Bit rate : 3 051 kb/s
Maximum bit rate : 5 067 kb/s
Channel(s) : 8 channels
Channel layout : L R C LFE Ls Rs Lb Rb
Sampling rate : 48.0 kHz
Frame rate : 1 200.000 FPS (40 SPF)
Compression mode : Lossless
Stream size : 2.41 GiB (13%)
Title : The.Meg.2018.1080p.3D.BluRay.Half-SBS.x264.TrueHD.7.1.Atmos-FGT
Language : English
Default : Yes
Forced : No
Number of dynamic objects : 11
Bed channel count : 1 channel
Bed channel configuration : LFE

Audio #2
ID : 3
Format : AC-3
Format/INFO : Audio Coding 3
Commercial name : Dolby Digital
Codec ID : A_AC3
Duration : 1 h 53 min
Bit rate mode : Constant
Bit rate : 448 kb/s
Channel(s) : 6 channels
Channel layout : L R C LFE Ls Rs
Sampling rate : 48.0 kHz
Frame rate : 31.250 FPS (1536 SPF)
Bit depth : 16 bits
Compression mode : Lossy
Stream size : 363 MiB (2%)
Title : The.Meg.2018.1080p.3D.BluRay.Half-SBS.x264.TrueHD.7.1.Atmos-FGT
Language : English
Service kind : Complete Main
Default : No
Forced : No

Audio #3
ID : 4
Format : AC-3
Format/INFO : Audio Coding 3
Commercial name : Dolby Digital
Codec ID : A_AC3
Duration : 1 h 53 min
Bit rate mode : Constant
Bit rate : 448 kb/s
Channel(s) : 6 channels
Channel layout : L R C LFE Ls Rs
Sampling rate : 48.0 kHz
Frame rate : 31.250 FPS (1536 SPF)
Bit depth : 16 bits
Compression mode : Lossy
Stream size : 363 MiB (2%)
Title : The.Meg.2018.1080p.3D.BluRay.Half-SBS.x264.TrueHD.7.1.Atmos-FGT
Language : French
Service kind : Complete Main
Default : No
Forced : No

Audio #4
ID : 5
Format : AC-3
Format/INFO : Audio Coding 3
Commercial name : Dolby Digital
Codec ID : A_AC3
Duration : 1 h 53 min
Bit rate mode : Constant
Bit rate : 448 kb/s
Channel(s) : 6 channels
Channel layout : L R C LFE Ls Rs
Sampling rate : 48.0 kHz
Frame rate : 31.250 FPS (1536 SPF)
Bit depth : 16 bits
Compression mode : Lossy
Stream size : 363 MiB (2%)
Title : The.Meg.2018.1080p.3D.BluRay.Half-SBS.x264.TrueHD.7.1.Atmos-FGT
Language : Spanish
Service kind : Complete Main
Default : No
Forced : No

Audio #5
ID : 6
Format : AC-3
Format/INFO : Audio Coding 3
Commercial name : Dolby Digital
Codec ID : A_AC3
Duration : 1 h 53 min
Bit rate mode : Constant
Bit rate : 448 kb/s
Channel(s) : 6 channels
Channel layout : L R C LFE Ls Rs
Sampling rate : 48.0 kHz
Frame rate : 31.250 FPS (1536 SPF)
Bit depth : 16 bits
Compression mode : Lossy
Stream size : 363 MiB (2%)
Title : The.Meg.2018.1080p.3D.BluRay.Half-SBS.x264.TrueHD.7.1.Atmos-FGT
Language : Portuguese
Service kind : Complete Main
Default : No
Forced : No

Audio #6
ID : 7
Format : AC-3
Format/INFO : Audio Coding 3
Commercial name : Dolby Digital
Codec ID : A_AC3
Duration : 1 h 53 min
Bit rate mode : Constant
Bit rate : 448 kb/s
Channel(s) : 6 channels
Channel layout : L R C LFE Ls Rs
Sampling rate : 48.0 kHz
Frame rate : 31.250 FPS (1536 SPF)
Bit depth : 16 bits
Compression mode : Lossy
Stream size : 363 MiB (2%)
Title : The.Meg.2018.1080p.3D.BluRay.Half-SBS.x264.TrueHD.7.1.Atmos-FGT
Language : Czech
Service kind : Complete Main
Default : No
Forced : No

Audio #7
ID : 8
Format : AC-3
Format/INFO : Audio Coding 3
Commercial name : Dolby Digital
Codec ID : A_AC3
Duration : 1 h 53 min
Bit rate mode : Constant
Bit rate : 448 kb/s
Channel(s) : 6 channels
Channel layout : L R C LFE Ls Rs
Sampling rate : 48.0 kHz
Frame rate : 31.250 FPS (1536 SPF)
Bit depth : 16 bits
Compression mode : Lossy
Stream size : 363 MiB (2%)
Title : The.Meg.2018.1080p.3D.BluRay.Half-SBS.x264.TrueHD.7.1.Atmos-FGT
Language : Hindi
Service kind : Complete Main
Default : No
Forced : No

Audio #8
ID : 9
Format : AC-3
Format/INFO : Audio Coding 3
Commercial name : Dolby Digital
Codec ID : A_AC3
Duration : 1 h 53 min
Bit rate mode : Constant
Bit rate : 448 kb/s
Channel(s) : 6 channels
Channel layout : L R C LFE Ls Rs
Sampling rate : 48.0 kHz
Frame rate : 31.250 FPS (1536 SPF)
Bit depth : 16 bits
Compression mode : Lossy
Stream size : 363 MiB (2%)
Title : The.Meg.2018.1080p.3D.BluRay.Half-SBS.x264.TrueHD.7.1.Atmos-FGT
Language : Hungarian
Service kind : Complete Main
Default : No
Forced : No

Audio #9
ID : 10
Format : AC-3
Format/INFO : Audio Coding 3
Commercial name : Dolby Digital
Codec ID : A_AC3
Duration : 1 h 53 min
Bit rate mode : Constant
Bit rate : 448 kb/s
Channel(s) : 6 channels
Channel layout : L R C LFE Ls Rs
Sampling rate : 48.0 kHz
Frame rate : 31.250 FPS (1536 SPF)
Bit depth : 16 bits
Compression mode : Lossy
Stream size : 363 MiB (2%)
Title : The.Meg.2018.1080p.3D.BluRay.Half-SBS.x264.TrueHD.7.1.Atmos-FGT
Language : Polish
Service kind : Complete Main
Default : No
Forced : No

Audio #10
ID : 11
Format : AC-3
Format/INFO : Audio Coding 3
Commercial name : Dolby Digital
Codec ID : A_AC3
Duration : 1 h 53 min
Bit rate mode : Constant
Bit rate : 448 kb/s
Channel(s) : 6 channels
Channel layout : L R C LFE Ls Rs
Sampling rate : 48.0 kHz
Frame rate : 31.250 FPS (1536 SPF)
Bit depth : 16 bits
Compression mode : Lossy
Stream size : 363 MiB (2%)
Title : The.Meg.2018.1080p.3D.BluRay.Half-SBS.x264.TrueHD.7.1.Atmos-FGT
Language : Russian
Service kind : Complete Main
Default : No
Forced : No

Audio #11
ID : 12
Format : AC-3
Format/INFO : Audio Coding 3
Commercial name : Dolby Digital
Codec ID : A_AC3
Duration : 1 h 53 min
Bit rate mode : Constant
Bit rate : 448 kb/s
Channel(s) : 6 channels
Channel layout : L R C LFE Ls Rs
Sampling rate : 48.0 kHz
Frame rate : 31.250 FPS (1536 SPF)
Bit depth : 16 bits
Compression mode : Lossy
Stream size : 363 MiB (2%)
Title : The.Meg.2018.1080p.3D.BluRay.Half-SBS.x264.TrueHD.7.1.Atmos-FGT
Language : Tamil
Service kind : Complete Main
Default : No
Forced : No

Audio #12
ID : 13
Format : AC-3
Format/INFO : Audio Coding 3
Commercial name : Dolby Digital
Codec ID : A_AC3
Duration : 1 h 53 min
Bit rate mode : Constant
Bit rate : 448 kb/s
Channel(s) : 6 channels
Channel layout : L R C LFE Ls Rs
Sampling rate : 48.0 kHz
Frame rate : 31.250 FPS (1536 SPF)
Bit depth : 16 bits
Compression mode : Lossy
Stream size : 363 MiB (2%)
Title : The.Meg.2018.1080p.3D.BluRay.Half-SBS.x264.TrueHD.7.1.Atmos-FGT
Language : Telugu
Service kind : Complete Main
Default : No
Forced : No

Audio #13
ID : 14
Format : AC-3
Format/INFO : Audio Coding 3
Commercial name : Dolby Digital
Codec ID : A_AC3
Duration : 1 h 53 min
Bit rate mode : Constant
Bit rate : 448 kb/s
Channel(s) : 6 channels
Channel layout : L R C LFE Ls Rs
Sampling rate : 48.0 kHz
Frame rate : 31.250 FPS (1536 SPF)
Bit depth : 16 bits
Compression mode : Lossy
Stream size : 363 MiB (2%)
Title : The.Meg.2018.1080p.3D.BluRay.Half-SBS.x264.TrueHD.7.1.Atmos-FGT
Language : Turkish
Service kind : Complete Main
Default : No
Forced : No

Text #1
ID : 15
Format : PGS
Muxing mode : zlib
Codec ID : S_HDMV/PGS
Codec ID/INFO : Picture based subtitle format used on BDs/HD-DVDs
Duration : 1 h 52 min
Bit rate : 45.5 kb/s
Count of elements : 2960
Stream size : 36.5 MiB (0%)
Title : English-PGS
Language : English
Default : Yes
Forced : No

Text #2
ID : 16
Format : PGS
Muxing mode : zlib
Codec ID : S_HDMV/PGS
Codec ID/INFO : Picture based subtitle format used on BDs/HD-DVDs
Duration : 1 h 52 min
Bit rate : 29.3 kb/s
Count of elements : 2560
Stream size : 23.6 MiB (0%)
Title : French-PGS
Language : French
Default : No
Forced : No

Text #3
ID : 17
Format : PGS
Muxing mode : zlib
Codec ID : S_HDMV/PGS
Codec ID/INFO : Picture based subtitle format used on BDs/HD-DVDs
Duration : 1 h 52 min
Bit rate : 37.2 kb/s
Count of elements : 2780
Stream size : 29.9 MiB (0%)
Title : Spanish-PGS
Language : Spanish
Default : No
Forced : No

Text #4
ID : 18
Format : PGS
Muxing mode : zlib
Codec ID : S_HDMV/PGS
Codec ID/INFO : Picture based subtitle format used on BDs/HD-DVDs
Duration : 1 h 52 min
Bit rate : 39.7 kb/s
Count of elements : 2758
Stream size : 32.0 MiB (0%)
Title : Portuguese-PGS
Language : Portuguese
Default : No
Forced : No

Text #5
ID : 19
Format : PGS
Muxing mode : zlib
Codec ID : S_HDMV/PGS
Codec ID/INFO : Picture based subtitle format used on BDs/HD-DVDs
Duration : 1 h 52 min
Bit rate : 19.7 kb/s
Count of elements : 2648
Stream size : 15.8 MiB (0%)
Title : Arabic-PGS
Language : Arabic
Default : No
Forced : No

Text #6
ID : 20
Format : PGS
Muxing mode : zlib
Codec ID : S_HDMV/PGS
Codec ID/INFO : Picture based subtitle format used on BDs/HD-DVDs
Duration : 1 h 52 min
Bit rate : 35.7 kb/s
Count of elements : 2756
Stream size : 28.7 MiB (0%)
Title : Bulgarian-PGS
Language : Bulgarian
Default : No
Forced : No

Text #7
ID : 21
Format : PGS
Muxing mode : zlib
Codec ID : S_HDMV/PGS
Codec ID/INFO : Picture based subtitle format used on BDs/HD-DVDs
Duration : 1 h 52 min
Bit rate : 36.3 kb/s
Count of elements : 2752
Stream size : 29.2 MiB (0%)
Title : Croatian-PGS
Language : Croatian
Default : No
Forced : No

Text #8
ID : 22
Format : PGS
Muxing mode : zlib
Codec ID : S_HDMV/PGS
Codec ID/INFO : Picture based subtitle format used on BDs/HD-DVDs
Duration : 1 h 52 min
Bit rate : 35.6 kb/s
Count of elements : 2732
Stream size : 28.7 MiB (0%)
Title : Czech-PGS
Language : Czech
Default : No
Forced : No

Text #9
ID : 23
Format : PGS
Muxing mode : zlib
Codec ID : S_HDMV/PGS
Codec ID/INFO : Picture based subtitle format used on BDs/HD-DVDs
Duration : 1 h 52 min
Bit rate : 35.2 kb/s
Count of elements : 2630
Stream size : 28.3 MiB (0%)
Title : Greek-PGS
Language : Greek
Default : No
Forced : No

Text #10
ID : 24
Format : PGS
Muxing mode : zlib
Codec ID : S_HDMV/PGS
Codec ID/INFO : Picture based subtitle format used on BDs/HD-DVDs
Duration : 1 h 52 min
Bit rate : 28.7 kb/s
Count of elements : 2792
Stream size : 23.1 MiB (0%)
Title : Hebrew-PGS
Language : Hebrew
Default : No
Forced : No

Text #11
ID : 25
Format : PGS
Muxing mode : zlib
Codec ID : S_HDMV/PGS
Codec ID/INFO : Picture based subtitle format used on BDs/HD-DVDs
Duration : 1 h 52 min
Bit rate : 38.1 kb/s
Count of elements : 2638
Stream size : 30.7 MiB (0%)
Title : Hungarian-PGS
Language : Hungarian
Default : No
Forced : No

Text #12
ID : 26
Format : PGS
Muxing mode : zlib
Codec ID : S_HDMV/PGS
Codec ID/INFO : Picture based subtitle format used on BDs/HD-DVDs
Duration : 1 h 52 min
Bit rate : 36.6 kb/s
Count of elements : 2702
Stream size : 29.4 MiB (0%)
Title : Icelandic-PGS
Language : Icelandic
Default : No
Forced : No

Text #13
ID : 27
Format : PGS
Muxing mode : zlib
Codec ID : S_HDMV/PGS
Codec ID/INFO : Picture based subtitle format used on BDs/HD-DVDs
Duration : 1 h 52 min
Bit rate : 29.8 kb/s
Count of elements : 2626
Stream size : 23.9 MiB (0%)
Title : Polish-PGS
Language : Polish
Default : No
Forced : No

Text #14
ID : 28
Format : PGS
Muxing mode : zlib
Codec ID : S_HDMV/PGS
Codec ID/INFO : Picture based subtitle format used on BDs/HD-DVDs
Duration : 1 h 52 min
Bit rate : 37.3 kb/s
Count of elements : 2694
Stream size : 30.0 MiB (0%)
Title : Portuguese-PGS
Language : Portuguese
Default : No
Forced : No

Text #15
ID : 29
Format : PGS
Muxing mode : zlib
Codec ID : S_HDMV/PGS
Codec ID/INFO : Picture based subtitle format used on BDs/HD-DVDs
Duration : 1 h 52 min
Bit rate : 35.6 kb/s
Count of elements : 2578
Stream size : 28.7 MiB (0%)
Title : Romanian-PGS
Language : Romanian
Default : No
Forced : No

Text #16
ID : 30
Format : PGS
Muxing mode : zlib
Codec ID : S_HDMV/PGS
Codec ID/INFO : Picture based subtitle format used on BDs/HD-DVDs
Duration : 1 h 52 min
Bit rate : 39.2 kb/s
Count of elements : 2406
Stream size : 31.5 MiB (0%)
Title : Russian-PGS
Language : Russian
Default : No
Forced : No

Text #17
ID : 31
Format : PGS
Muxing mode : zlib
Codec ID : S_HDMV/PGS
Codec ID/INFO : Picture based subtitle format used on BDs/HD-DVDs
Duration : 1 h 52 min
Bit rate : 31.8 kb/s
Count of elements : 1996
Stream size : 25.6 MiB (0%)
Title : Slovenian-PGS
Language : Slovenian
Default : No
Forced : No

Text #18
ID : 32
Format : PGS
Muxing mode : zlib
Codec ID : S_HDMV/PGS
Codec ID/INFO : Picture based subtitle format used on BDs/HD-DVDs
Duration : 1 h 52 min
Bit rate : 37.8 kb/s
Count of elements : 2746
Stream size : 30.4 MiB (0%)
Title : Turkish-PGS
Language : Turkish
Default : No
Forced : No

Text #19
ID : 33
Format : PGS
Muxing mode : zlib
Codec ID : S_HDMV/PGS
Codec ID/INFO : Picture based subtitle format used on BDs/HD-DVDs
Duration : 1 h 52 min
Bit rate : 1 581 b/s
Count of elements : 138
Stream size : 1.27 MiB (0%)
Title : French-FORCED-PGS
Language : French
Default : No
Forced : No

Text #20
ID : 34
Format : PGS
Muxing mode : zlib
Codec ID : S_HDMV/PGS
Codec ID/INFO : Picture based subtitle format used on BDs/HD-DVDs
Duration : 1 h 52 min
Bit rate : 2 343 b/s
Count of elements : 190
Stream size : 1.88 MiB (0%)
Title : Spanish-FORCED-PGS
Language : Spanish
Default : No
Forced : No

Text #21
ID : 35
Format : PGS
Muxing mode : zlib
Codec ID : S_HDMV/PGS
Codec ID/INFO : Picture based subtitle format used on BDs/HD-DVDs
Duration : 1 h 47 min
Bit rate : 1 438 b/s
Count of elements : 138
Stream size : 1.10 MiB (0%)
Title : Portuguese-FORCED-PGS
Language : Portuguese
Default : No
Forced : No

Text #22
ID : 36
Format : PGS
Muxing mode : zlib
Codec ID : S_HDMV/PGS
Codec ID/INFO : Picture based subtitle format used on BDs/HD-DVDs
Duration : 1 h 52 min
Bit rate : 1 731 b/s
Count of elements : 166
Stream size : 1.39 MiB (0%)
Title : Czech-FORCED-PGS
Language : Czech
Default : No
Forced : No

Text #23
ID : 37
Format : PGS
Muxing mode : zlib
Codec ID : S_HDMV/PGS
Codec ID/INFO : Picture based subtitle format used on BDs/HD-DVDs
Duration : 1 h 51 min
Bit rate : 714 b/s
Count of elements : 82
Stream size : 584 KiB (0%)
Title : Hindi-FORCED-PGS
Language : Hindi
Default : No
Forced : No

Text #24
ID : 38
Format : PGS
Muxing mode : zlib
Codec ID : S_HDMV/PGS
Codec ID/INFO : Picture based subtitle format used on BDs/HD-DVDs
Duration : 1 h 52 min
Bit rate : 2 489 b/s
Count of elements : 206
Stream size : 2.00 MiB (0%)
Title : Hungarian-FORCED-PGS
Language : Hungarian
Default : No
Forced : No

Text #25
ID : 39
Format : PGS
Muxing mode : zlib
Codec ID : S_HDMV/PGS
Codec ID/INFO : Picture based subtitle format used on BDs/HD-DVDs
Duration : 1 h 52 min
Bit rate : 2 711 b/s
Count of elements : 194
Stream size : 2.17 MiB (0%)
Title : Russian-FORCED-PGS
Language : Russian
Default : No
Forced : No

Text #26
ID : 40
Format : PGS
Muxing mode : zlib
Codec ID : S_HDMV/PGS
Codec ID/INFO : Picture based subtitle format used on BDs/HD-DVDs
Duration : 1 h 51 min
Bit rate : 1 085 b/s
Count of elements : 88
Stream size : 886 KiB (0%)
Title : Tamil-FORCED-PGS
Language : Tamil
Default : No
Forced : No

Text #27
ID : 41
Format : PGS
Muxing mode : zlib
Codec ID : S_HDMV/PGS
Codec ID/INFO : Picture based subtitle format used on BDs/HD-DVDs
Duration : 1 h 51 min
Bit rate : 892 b/s
Count of elements : 86
Stream size : 729 KiB (0%)
Title : Telugu-FORCED-PGS
Language : Telugu
Default : No
Forced : No

Text #28
ID : 42
Format : PGS
Muxing mode : zlib
Codec ID : S_HDMV/PGS
Codec ID/INFO : Picture based subtitle format used on BDs/HD-DVDs
Duration : 1 h 51 min
Bit rate : 2 155 b/s
Count of elements : 188
Stream size : 1.73 MiB (0%)
Title : Turkish-FORCED-PGS
Language : Turkish
Default : No
Forced : No

Menu
00:00:00.000 : en:(01)00:00:00:000
00:08:48.694 : en:(02)00:08:48:694
00:18:14.259 : en:(03)00:18:14:259
00:27:09.878 : en:(04)00:27:09:878
00:39:30.534 : en:(05)00:39:30:534
00:49:10.989 : en:(06)00:49:10:989
00:58:01.478 : en:(07)00:58:01:478
01:08:22.890 : en:(08)01:08:22:890
01:19:45.947 : en:(09)01:19:45:947
01:30:04.399 : en:(10)01:30:04:399
01:42:40.988 : en:(11)01:42:40:988
01:53:13.369 : en:(12)01:53:13:369

====================================================

PODOBNE TORRENTY
Minionki 3D - Minions *2015* (48FPS)[1080p.3D.Half.Over-Under.TrueHD.7 1.Atmos.BluRay.x264-LEON 345] [Dubbing i napisy PL] Jumanji: Przygoda w Dzungli - Jumanji: Welcome to the Jungle *2017* [1080p.3D.BluRay.Half-OU.x264.TrueHD.7.1.Atmos-FGT] [MULTI] [Lektor & Napisy PL] Jumanji: Przygoda w Dzungli - Jumanji: Welcome to the Jungle *2017* [1080p.3D.BluRay.Half-SBS.x264.TrueHD.7.1.Atmos-FGT] [MULTI] [Dubbing & Napisy PL] Terminator: Genisys 3D *2015* [PL.SUBBED.1080p.3D.Half.Over-Under.TrueHD 7.1.Atmos.AC3.BluRay.x264-SONDA] [ENG] [AT-TEAM] Kong: Wyspa Czaszki - Kong.Skull.Island.*2017* [1080p] [3D] [BluRay] [Half-SBS.x264.TrueHD.7.1.Atmos-FGT] [Lektor PL] [zibi6248] Igrzyska śmierci: Kosogłos. Część 2 3D - The Hunger Games: Mockingjay Part 2 *2015* [PLSUBBED.1080p.3D.Half.Over-Under.TrueHD 7.1.Atmos.BluRay.x264-SONDA] [ENG] [AT-TEAM]
Szczegóły torrenta
TRACKER
Tracker Podstawowy: http://tracker.trackerfix.com:80/announce

Multitrackery:

http://tracker.trackerfix.com:80/announce
udp://9.rarbg.me:2710/announce
udp://9.rarbg.to:2710/announce

UAKTUALNIENIE
09/10/2020 18:19:19 (Jeśeli nie widac seeda kliknij na [uaktualnij] by odswieżyć statystyki).
[Lub sprawdź programem do pobierania torrentów, ponieważ niektóre trackery nie wyświetlają statystyk]
2 pliki
 
KOMENTARZE


Brak komentarzy...

DODAJ KOMENTARZ

Zaloguj się aby dodawać komentarze !!!



Wstecz








WRÓĆ NA GÓRĘ