FileTracker.PL - Darmowe polskie torrenty

Witaj drogi Towarzyszu!, jeżeli widzisz ten dymek to znaczy że nie jesteś jeszcze zarejestrowany/zalogowany. Kliknij by się zarejestrować . Rejestracja zajmie mniej niż 30 sekund, a dzięki niej zyskasz możliwość pobierania, komentowania oraz dodawania torrentów !
User:  Hasło:     



Kategorie


Detale Torrenta


Seria Niezgodna: Wierna / The Divergent Series: Allegiant (2016) [HDRip XviD AC3] [EVO] [ENG]

S: 5L: 0P: 37
Dodał: Don_RIAS Tracker:
Kondycja:Dodane:2019-03-27 14:26:16
Kategoria:Filmy DivX / XviD  »  FantasyRozmiar:1.46 GB
Język:Wersja ENG  Wersja ENG------------------
Obserwuj:OBSERWUJ TORRENTAStaty:UAKTUALNIJ TRACKER
Download: Pobierz TorrentRaport:RAPORTUJ TORRENTA


Produkcja: USA
Gatunek: Akcja, Sci-Fi
Premiera: 11 marca 2016 (Polska), 8 marca 2016 (świat)
Reżyseria: Robert Schwentke
Scenariusz: Noah Oppenheim, Adam Cooper




Tym razem Tris i Cztery muszą przekroczyć granicę metropolii przyszłości i wejść do zupełnie nieznanego sobie świata, ukrywanego przez system. Jest to jedyny sposób, by ocalić ludzkość i zniszczyć dyktaturę. To, co odkryją po drugiej stronie, każe im zweryfikować wszystko, w co dotąd wierzyli i raz jeszcze dokonać podstawowych wyborów dotyczących odwagi, wierności, poświęcenia i miłości. Czeka ich ostateczna walka o świat, o siebie, o miłość.



Shailene Woodley .... Beatrice "Tris" Prior
Theo James .... Tobias "Cztery" Eaton
Naomi Watts .... Evelyn
Octavia Spencer .... Johanna
Jeff Daniels .... David
Zoë Kravitz .... Christina
Ansel Elgort .... Caleb Prior
Miles Teller .... Peter




Cytuje:
General
Complete name : The.Divergent.Series.Allegiant.2016.HDRip.XviD.AC3-EVO.avi
Format : AVI
Format/INFO : Audio Video Interleave
Format profile : OpenDML
Format settings : rec
File size : 1.45 GiB
Duration : 2 h 0 min
Overall bit rate : 1 726 kb/s
Writing application : AVI-Mux GUI 1.17.8.3, Feb 16 201019:42:50

Video
ID : 0
Format : MPEG-4 Visual
Format profile : Advanced [email protected]
Format settings, BVOP : 2
Format settings, QPel : No
Format settings, GMC : No warppoints
Format settings, Matrix : Default (MPEG)
Codec ID : XVID
Codec ID/Hint : XviD
Duration : 2 h 0 min
Bit rate : 1 337 kb/s
Width : 720 pixels
Height : 304 pixels
Display aspect ratio : 2.35:1
Frame rate : 23.976 (24000/1001) FPS
Color space : YUV
Chroma subsampling : 4:2:0
Bit depth : 8 bits
Scan type : Progressive
Compression mode : Lossy
Bits/(Pixel*Frame) : 0.255
Stream size : 1.13 GiB (77%)
Writing library : XviD 1.2.1 (UTC 2008-12-04)

Audio
ID : 1
Format : AC-3
Format/INFO : Audio Coding 3
Codec ID : 2000
Duration : 2 h 0 min
Bit rate mode : Constant
Bit rate : 384 kb/s
Channel(s) : 6 channels
Sampling rate : 48.0 kHz
Compression mode : Lossy
Stream size : 331 MiB (22%)
Alignment : Aligned on interleaves
Title : T2_Audio - English


















====================================================

PODOBNE TORRENTY
Seria-Niezgodna Zbuntowana Wierna - The Series-Divergent Insurgent  Allegiant (2014-2016) [DVDRip.XviD] [Lektor PL] [D.T.m1125] Seria Niezgodna: Wierna - The Divergent Series: Allegian *2016* [BDRip] [XviD-KiT] [Lektor PL] [DYZIO] Seria Niezgodna: Niezgodna - Divergent *2014* [DVRip] [XviD] [Lektor PL] Seria Niezgodna Wierna (2014-2016) [2160p] [UHD.Blu-ray.HDR] [HEVC.ATMOS7.1 PL5.1] [LEKTOR i Nap PL/ENG] Niezgodna / Divergent (2014-2016) KOLEKCJA [480p] [BRRip.XviD-LTN] [AC-3] [Lektor PL] Niezgodna - Divergent *2014* [DVDRip.XviD] [AC3-sav] [Lektor PL]
Szczegóły torrenta
TRACKER
Tracker Podstawowy: udp://tracker.coppersurfer.tk:6969/announce

Multitrackery:

udp://tracker.coppersurfer.tk:6969/announce
http://p2p-torrent.ga/announce.php?pid=b25d1a88159deed69a8cdfa89d78eef4
udp://tracker.internetwarriors.net:1337/announce
udp://tracker.opentrackr.org:1337/announce
udp://tracker.leechers-paradise.org:6969/announce
udp://explodie.org:6969/announce

UAKTUALNIENIE
09/02/2020 20:14:41 (Jeśeli nie widac seeda kliknij na [uaktualnij] by odswieżyć statystyki).
[Lub sprawdź programem do pobierania torrentów, ponieważ niektóre trackery nie wyświetlają statystyk]
4 pliki
 
KOMENTARZE


Brak komentarzy...

DODAJ KOMENTARZ

Zaloguj się aby dodawać komentarze !!!



Wstecz








WRÓĆ NA GÓRĘ