FileTracker.PL - Darmowe polskie torrenty

Witaj drogi Towarzyszu!, jeżeli widzisz ten dymek to znaczy że nie jesteś jeszcze zarejestrowany/zalogowany. Kliknij by się zarejestrować . Rejestracja zajmie mniej niż 30 sekund, a dzięki niej zyskasz możliwość pobierania, komentowania oraz dodawania torrentów !
User:  Hasło:     



Kategorie


Detale Torrenta


Organizacja-The Organization (1971)[BRRip.1080p.x265-HEVC.AC3/DTS][Lektor PL][Eng]

S: 0L: 4P: 9
Dodał: alE13 Tracker:
Kondycja:Dodane:2015-06-11 17:04:25
Kategoria:Filmy UHD4K / x265  »  KryminalneRozmiar:3.34 GB
Język:Lektor PL  Lektor PL------------------
Obserwuj:OBSERWUJ TORRENTAStaty:UAKTUALNIJ TRACKER
Download: Pobierz TorrentRaport:RAPORTUJ TORRENTA




https://www.filmweb.pl/film/Organizacja-1971-129478
https://www.imdb.com/title/tt0067535/

reżyseria: Don Medford
scenariusz: James R. Webb
gatunek: Dramat, Kryminał
produkcja: USA
premiera: 20-10-1971
muzyka: Gil Melle
zdjęcia: Joseph F. Biroc
czas: 01:47:53



After a group of young revolutionaries break into a corporation's headquarters and steal $5,000,000 worth
of heroin to keep it off the street, they call on San Francisco Police Lieutenant Virgil Tibbs for assistance.
Though sympathetic to their cause, the straight-arrow Tibbs refuses to consider it because they broke the law,
but when the group is then accused of a murder it didn't commit, Tibbs finally joins them in order to ferret
out the identity of the real killer, while keeping his now rogue undercover investigation a secret from his
SFPD superiors.

Grupka obywateli podjęła walkę z kartelem narkotykowym nazywanym Organizacją. Z jej siedziby kradną heroinę
o wartości pięciu milionów dolarów. Wiedzą, że ten czyn nie ujdzie im bezkarnie, dlatego zabiegają o pomoc ze
strony policjanta - porucznika Virgila Tibbsa, który, mimo początkowej niechęci, zgadza się.








Sidney Poitier, Barbara McNair, Gerald S. O'Loughlin



The Organization (1971)-alE13.mkv
Format : Matroska
Format version : Version 4 / Version 2
File size : 3.34 GiB
Duration : 1h 47mn
Overall bit rate : 4 435 Kbps
Movie name : The Organization (1971)-alE13
Encoded date : UTC 2015-06-11 14:14:36
Writing application : mkvmerge v7.9.0 ('Birds') 64bit
Writing library : libebml v1.3.1 + libmatroska v1.4.2
DURATION : 01:47:57.003000000
NUMBER_OF_FRAMES : 607219
NUMBER_OF_BYTES : 1221724628
_STATISTICS_WRITING_APP : mkvmerge v7.9.0 ('Birds') 64bit
_STATISTICS_WRITING_DATE_UT : 2015-06-11 14:14:36
_STATISTICS_TAGS : BPS DURATION NUMBER_OF_FRAMES NUMBER_OF_BYTES

Video
ID : 1
Format : HEVC
Format/INFO : High Efficiency Video Coding
Format profile : [email protected]
Codec ID : V_MPEGH/ISO/HEVC
Duration : 1h 47mn
Bit rate : 2 454 Kbps
Width : 1 920 pixels
Height : 1 040 pixels
Display aspect ratio : 1.85:1
Frame rate mode : Constant
Frame rate : 23.976 fps
Color space : YUV
Chroma subsampling : 4:2:0
Bit depth : 8 bits
Bits/(Pixel*Frame) : 0.051
Stream size : 1.85 GiB (55%)
Title : The Organization (1971)-alE13
Default : Yes
Forced : No
DURATION : 01:47:53.248000000
NUMBER_OF_FRAMES : 202289
NUMBER_OF_BYTES : 310715904
_STATISTICS_WRITING_APP : mkvmerge v7.9.0 ('Birds') 64bit
_STATISTICS_WRITING_DATE_UT : 2015-06-11 14:14:36
_STATISTICS_TAGS : BPS DURATION NUMBER_OF_FRAMES NUMBER_OF_BYTES

Audio #1
ID : 2
Format : AC-3
Format/INFO : Audio Coding 3
Mode extension : CM (complete main)
Format settings, Endianness : Big
Codec ID : A_AC3
Duration : 1h 47mn
Bit rate mode : Constant
Bit rate : 384 Kbps
Channel(s) : 2 channels
Channel positions : Front: L R
Sampling rate : 48.0 KHz
Bit depth : 16 bits
Compression mode : Lossy
Delay relative to video : 1s 500ms
Stream size : 296 MiB (9%)
Title : The Organization (1971)-alE13_AC3
Language : Polish
Default : Yes
Forced : No

Audio #2
ID : 3
Format : DTS
Format/INFO : Digital Theater Systems
Mode : 16
Format settings, Endianness : Big
Codec ID : A_DTS
Duration : 1h 47mn
Bit rate mode : Constant
Bit rate : 1 509 Kbps
Channel(s) : 2 channels
Channel positions : Front: L R
Sampling rate : 48.0 KHz
Bit depth : 24 bits
Compression mode : Lossy
Stream size : 1.14 GiB (34%)
Title : The Organization (1971)-alE13_DTS
Language : English
Default : No
Forced : No

Menu
00:00:00.000 : en:00:00:00.000
00:14:16.439 : en:00:14:16.439
00:24:20.793 : en:00:24:20.793
00:36:06.623 : en:00:36:06.623
00:47:29.555 : en:00:47:29.555
01:05:38.726 : en:01:05:38.726
01:19:26.470 : en:01:19:26.470
01:30:56.034 : en:01:30:56.034

====================================================

PODOBNE TORRENTY
Let's Scare Jessica to Death (1971)[BRRip.1080p.x265-HEVC.AC3] [Napisy PL/ENG] [ENG] Dziewice i Wampiry-Vierges et vampires(1971)[BRRip.1080p.x265-HEVC by alE13.DTS] [Napisy PL/ENG] [ENG/Fre] Hombre (1967)[BRRip.1080p.x265-HEVC.AC3/DTS] [Lektor i Napisy PL/ENG] [ENG] Belfer-The Substitute (1996)[BRRip.1080p.x265-HEVC.AC3] [Lektor PL/Sub ENG] [ENG] Orgazmo (1997)[BRRip.1080p.x265-HEVC-by alE13.DTS/AC3] [Lektor PL] [ENG] EksPLozja-Blown Away (1994)[BRRip.1080p.x265-HEVC.DTS/AC3] [Lektor i Napisy PL/ENG] [ENG]
Szczegóły torrenta
TRACKER
Tracker Podstawowy: http://tracker.aletorrenty.pl:2710/announce

Multitrackery:

http://tracker.aletorrenty.pl:2710/announce
udp://inferno.demonoid.ooo:3392/announce
http://exodus.desync.com:6969/announce
http://bigfoot1942.sektori.org:6969/announce
http://tracker.filetracker.pl:8089/announce
http://tracker.torrenty.org:6969/announce
http://tracker.filetracker.pl:8089/announce
udp://tracker.aletorrenty.pl:2710/announce

UAKTUALNIENIE
29/08/2018 20:47:13 (Jeśeli nie widac seeda kliknij na [uaktualnij] by odswieżyć statystyki).
[Lub sprawdź programem do pobierania torrentów, ponieważ niektóre trackery nie wyświetlają statystyk]
6 pliki
 
KOMENTARZE


Brak komentarzy...

DODAJ KOMENTARZ

Zaloguj się aby dodawać komentarze !!!



Wstecz








WRÓĆ NA GÓRĘ