FileTracker.PL - Darmowe polskie torrenty

Witaj drogi Towarzyszu!, jeżeli widzisz ten dymek to znaczy że nie jesteś jeszcze zarejestrowany/zalogowany. Kliknij by się zarejestrować . Rejestracja zajmie mniej niż 30 sekund, a dzięki niej zyskasz możliwość pobierania, komentowania oraz dodawania torrentów !
User:  Hasło:     



Kategorie


Detale Torrenta


Rzeka Śmierci-River of Death(1989)[BRRip.1080p.x265-HEVC.AC3/DTS] [Lektor PL] [ENG]

S: 30L: 20P: 42
Dodał: alE13 Tracker:
Kondycja:Dodane:2015-06-04 09:00:55
Kategoria:Filmy UHD4K / x265  »  SensacyjneRozmiar:3.72 GB
Język:Lektor PL  Lektor PL------------------
Obserwuj:OBSERWUJ TORRENTAStaty:UAKTUALNIJ TRACKER
Download: Pobierz TorrentRaport:RAPORTUJ TORRENTA




https://www.filmweb.pl/film/Rzeka+%C5%9Bmierci-1989-37868
https://www.imdb.com/title/tt0098205/

reżyseria: Steve Carver
scenariusz: Andrew Deutsch,Edward Simpson
gatunek: Przygodowy,Sensacyjny
produkcja: USA
premiera: 29-09-1989
muzyka: Sasha Matson
zdjęcia: Avraham Karpick
czas: 01:41:28



An adventurer (Hamilton) decides to go in search of the lost city in the Amazon jungle.
A motley crew of other people with reasons of their own decide to join him for the wealth
of the lost city. But to their horror they find out that they have bit off more than they
can chew. What with a nazi doctor still doing his experiments on people in the same place.

Rok 1965, Amazonia. Poszukiwacz przygód i przewodnik John Hamilton zgadza się poprowadzić
w głąb dżungli ekspedycję złożoną z doktora Blakesleya i jego córki Anny. Lekarz chce dotrzeć
do indiańskiego plemienia żyjącego w pobliżu tajemniczego Zaginionego Miasta. Jego członkowie
zapadają na dziwną, śmiertelną chorobę. Dotarłszy na miejsce, Blakesley pobiera od chorych
próbki krwi, by je poddać dokładnym analizom laboratoryjnym. Niestety, plemię kanibali, pod
wodzą uzbrojonego białego mężczyzny, napada na przewodnika i jego "podopiecznych". Doktor
zostaje zastrzelony. Uciekający przed dziką hordą Hamilton bezradnie patrzy, jak Indianie
uprowadzają Annę. Poprzysięga sobie, że po nią wróci.

więcej:

https://www.filmweb.pl/film/Rzeka+%C5%9Bmierci-1989-37868/descs






OBSADA:

Michael Dudikoff, Donald Pleasence, Robert Vaughn



River of Death (1989)-alE13.mkv
Format : Matroska
Format version : Version 4 / Version 2
File size : 3.72 GiB
Duration : 1h 41mn
Overall bit rate : 5 243 Kbps
Movie name : River of Death(1989)-alE13
Encoded date : UTC 2015-06-04 06:33:39
Writing application : mkvmerge v7.9.0 ('Birds') 64bit
Writing library : libebml v1.3.1 + libmatroska v1.4.2
_STATISTICS_WRITING_APP : mkvmerge v7.9.0 ('Birds') 64bit
_STATISTICS_WRITING_DATE_UT : 2015-06-04 06:33:39
_STATISTICS_TAGS : BPS DURATION NUMBER_OF_FRAMES NUMBER_OF_BYTES
DURATION : 01:40:54.179000000
NUMBER_OF_FRAMES : 189140
NUMBER_OF_BYTES : 193679360

Video
ID : 1
Format : HEVC
Format/INFO : High Efficiency Video Coding
Format profile : Main@L4.0
Codec ID : V_MPEGH/ISO/HEVC
Duration : 1h 41mn
Bit rate : 3 374 Kbps
Width : 1 920 pixels
Height : 1 040 pixels
Display aspect ratio : 1.85:1
Frame rate mode : Constant
Frame rate : 23.976 fps
Color space : YUV
Chroma subsampling : 4:2:0
Bit depth : 8 bits
Bits/(Pixel*Frame) : 0.070
Stream size : 2.39 GiB (64%)
Title : River of Death(1989)-alE13
Default : Yes
Forced : No
_STATISTICS_WRITING_APP : mkvmerge v7.9.0 ('Birds') 64bit
_STATISTICS_WRITING_DATE_UT : 2015-06-04 06:33:39
_STATISTICS_TAGS : BPS DURATION NUMBER_OF_FRAMES NUMBER_OF_BYTES
DURATION : 01:41:28.750000000
NUMBER_OF_FRAMES : 570750
NUMBER_OF_BYTES : 1148349000

Audio #1
ID : 2
Format : DTS
Format/INFO : Digital Theater Systems
Mode : 16
Format settings, Endianness : Big
Codec ID : A_DTS
Duration : 1h 41mn
Bit rate mode : Constant
Bit rate : 1 509 Kbps
Channel(s) : 2 channels
Channel positions : Front: L R
Sampling rate : 48.0 KHz
Bit depth : 24 bits
Compression mode : Lossy
Stream size : 1.07 GiB (29%)
Title : River of Death(1989)-alE13_DTS
Language : English
Default : No
Forced : No

Audio #2
ID : 3
Format : AC-3
Format/INFO : Audio Coding 3
Mode extension : CM (complete main)
Format settings, Endianness : Big
Codec ID : A_AC3
Duration : 1h 41mn
Bit rate mode : Constant
Bit rate : 256 Kbps
Channel(s) : 2 channels
Channel positions : Front: L R
Sampling rate : 48.0 KHz
Bit depth : 16 bits
Compression mode : Lossy
Delay relative to video : 22s 550ms
Stream size : 186 MiB (5%)
Title : River of Death(1989)-alE13_AC3
Language : Polish
Default : Yes
Forced : No

====================================================

PODOBNE TORRENTY
Rzeka śmierci River of Death (1989)[DVDRip.XviD] [Lektor PL] [joanna668] Let's Scare Jessica to Death (1971)[BRRip.1080p.x265-HEVC.AC3] [Napisy PL/ENG] [ENG] Maze Runner The Death Cure *2018* [1080p] [BrRip] [6CH x265] [HEVC] [PSA] [ENG] Powrót do przyszłości-Back to the Future Trilogy (1985/1989/1990)[BRRip.1080p.x265-HEVC by alE13.AC3] [Lektor i Napisy PL/ENG] [ENG] Życzenie Śmierci 5 - Death Wish 5 The Face of Death *1994* [1080p.BRRip.XviD-NoNaNo] [Lektor PL] Na przeklętej ziemi -  Wind River *2017* [1080p] [BluRay] [HEVC] [x265.AC3.AAC] [MULTI] [LEKTOR & NAPISY PL] [ENG]
Szczegóły torrenta
TRACKER
Tracker Podstawowy: http://tracker.aletorrenty.pl:2710/announce

Multitrackery:

http://tracker.aletorrenty.pl:2710/announce
http://exodus.desync.com:6969/announce
http://bigfoot1942.sektori.org:6969/announce
http://bttracker.crunchbanglinux.org:6969/announce
http://tracker.torrent-polska.info:2710/announce
http://tracker.torrent-polska.eu:2710/announce
http://tracker.torrenty.org:6969/announce
http://tracker.filetracker.pl:8089/announce
udp://tracker.aletorrenty.pl:2710/announce
http://inferno.demonoid.ph:3389/announce

UAKTUALNIENIE
01/03/2020 21:33:22 (Jeśeli nie widac seeda kliknij na [uaktualnij] by odswieżyć statystyki).
[Lub sprawdź programem do pobierania torrentów, ponieważ niektóre trackery nie wyświetlają statystyk]
6 pliki
 
KOMENTARZE


Brak komentarzy...

DODAJ KOMENTARZ

Zaloguj się aby dodawać komentarze !!!



Wstecz








WRÓĆ NA GÓRĘ