FileTracker.PL - Darmowe polskie torrenty

Witaj drogi Towarzyszu!, jeżeli widzisz ten dymek to znaczy że nie jesteś jeszcze zarejestrowany/zalogowany. Kliknij by się zarejestrować . Rejestracja zajmie mniej niż 30 sekund, a dzięki niej zyskasz możliwość pobierania, komentowania oraz dodawania torrentów !
User:  Hasło:     



Kategorie


Detale Torrenta


Glass 2019 [ HDCAM-1XBET-X264] [ENG] [R@KU]

S: 4L: 0P: 151
Dodał: R@KU Tracker:
Kondycja:Dodane:2019-01-19 02:33:17
Kategoria:TS / CAM / IVO  »  SensacyjneRozmiar:2.44 GB
Język:Wersja ENG  Wersja ENG------------------
Obserwuj:OBSERWUJ TORRENTAStaty:UAKTUALNIJ TRACKER
Download: Pobierz TorrentRaport:RAPORTUJ TORRENTA

reżyseria: M. Night Shyamalan
scenariusz: M. Night Shyamalan
gatunek: Thriller
produkcja: USA
premiera: 18 stycznia 2019 (Polska) 16 stycznia 2019 (świat)

Strażnik David Dunn, wykorzystując swoje nadprzyrodzone zdolności, tropi człowieka o wielu osobowościach.

James McAvoy
Bruce Willis
Samuel L. Jackson

General
Complete name : F:filmyglas[R@KU]Glass 2019 720p HDCAM-1XBET .mp4
Format : MPEG-4
Format profile : Base Media / Version 2
Codec ID : mp42 (mp42/isom/avc1)
File size : 2.44 GiB
Duration : 2 h 0 min
Overall bit rate mode : Variable
Overall bit rate : 2 900 kb/s
Encoded date : UTC 2019-01-18 00:51:01
Tagged date : UTC 2019-01-18 00:51:01
Writing application : TMPGEnc Video Mastering Works 6 Version. 6.2.2.29

Video
ID : 2
Format : AVC
Format/INFO : Advanced Video Codec
Format profile : High@L3.1
Format settings : CABAC / 6 Ref Frames
Format settings, CABAC : Yes
Format settings, RefFrames : 6 frames
Codec ID : avc1
Codec ID/INFO : Advanced Video Coding
Duration : 2 h 0 min
Bit rate mode : Variable
Bit rate : 2 673 kb/s
Maximum bit rate : 18.0 Mb/s
Width : 1 280 pixels
Height : 536 pixels
Display aspect ratio : 2.40:1
Frame rate mode : Constant
Frame rate : 29.970 (30000/1001) FPS
Standard : Component
Color space : YUV
Chroma subsampling : 4:2:0
Bit depth : 8 bits
Scan type : Progressive
Bits/(Pixel*Frame) : 0.130
Stream size : 2.25 GiB (92%)
Writing library : x264 core 148
Encoding settings : cabac=1 / ref=6 / deblock=1:0:0 / analyse=0x3:0x113 / me=hex / subme=7 / psy=1 / psy_rd=1.00:0.00 / mixed_ref=1 / me_range=16 / chroma_me=1 / trellis=1 / 8x8dct=1 / cqm=1 / deadzone=21,11 / fast_pskip=1 / chroma_qp_offset=-2 / threads=12 / lookahead_threads=2 / sliced_threads=0 / slices=1 / nr=0 / decimate=1 / interlaced=0 / minigop=0 / stitchable=1 / constrained_intra=0 / bframes=3 / b_pyramid=0 / b_adapt=1 / b_bias=0 / direct=1 / weightb=1 / open_gop=0 / weightp=2 / keyint=250 / keyint_min=25 / scenecut=40 / intra_refresh=0 / rc_lookahead=40 / rc=abr / mbtree=1 / bitrate=2673 / ratetol=1.0 / qcomp=0.60 / qpmin=3 / qpmax=69 / qpstep=4 / vbv_maxrate=18000 / vbv_bufsize=18000 / nal_hrd=vbr / filler=0 / ip_ratio=1.40 / aq=1:1.00
Encoded date : UTC 2019-01-18 00:51:01
Tagged date : UTC 2019-01-18 00:51:01
Color range : Limited
Color primaries : BT.709
Transfer characteristics : BT.709
Matrix coefficients : BT.709
Codec configuration box : avcC

Audio
ID : 1
Format : AC-3
Format/INFO : Audio Coding 3
Commercial name : Dolby Digital
Codec ID : ac-3
Duration : 2 h 0 min
Bit rate mode : Constant
Bit rate : 224 kb/s
Channel(s) : 2 channels
Channel layout : L R
Sampling rate : 48.0 kHz
Frame rate : 31.250 FPS (1536 SPF)
Bit depth : 16 bits
Compression mode : Lossy
Stream size : 193 MiB (8%)
Service kind : Complete Main
Default : Yes
Alternate group : 1
Encoded date : UTC 2019-01-18 00:51:01
Tagged date : UTC 2019-01-18 00:51:01

====================================================

PODOBNE TORRENTY
Papilon 2018 [CAM.x264.1XBET] [ENG]  [R@KU] Venom *2018*  [TS-CAM-1XBET x264] [ENG] [R@KU] Ma *2019* [HDCAM x264 AC3-ETRG] [ENG] Toy Story 4 2019 [HDCAM x264] [ ENG ] [R@KU] 1917 *2019* [720p.HDCAM.x264] [ENG] Detective Pikachu 2019 [NEW HDCAM] [x264] [ENG] [R@KU]
Szczegóły torrenta
TRACKER
Tracker Podstawowy: udp://tracker.opentrackr.org:1337/announce

Multitrackery:

udp://tracker.opentrackr.org:1337/announce
udp://9.rarbg.to:2710/announce
udp://tracker.openbittorrent.com:80/announce
udp://tracker.opentrackr.org:1337/announce

UAKTUALNIENIE
22/03/2019 19:31:59 (Jeśeli nie widac seeda kliknij na [uaktualnij] by odswieżyć statystyki).
[Lub sprawdź programem do pobierania torrentów, ponieważ niektóre trackery nie wyświetlają statystyk]
2 pliki
 
KOMENTARZE


Brak komentarzy...

DODAJ KOMENTARZ

Zaloguj się aby dodawać komentarze !!!



Wstecz








WRÓĆ NA GÓRĘ