FileTracker.PL - Darmowe polskie torrenty

Witaj drogi Towarzyszu!, jeżeli widzisz ten dymek to znaczy że nie jesteś jeszcze zarejestrowany/zalogowany. Kliknij by się zarejestrować . Rejestracja zajmie mniej niż 30 sekund, a dzięki niej zyskasz możliwość pobierania, komentowania oraz dodawania torrentów !
User:  Hasło:     



Kategorie


Detale Torrenta


Creed 2 2018 [NEW-HDCAM X264] [UNiQUE] [ENG] [R@KU]

S: 2L: 2P: 59
Dodał: R@KU Tracker:
Kondycja:Dodane:2019-01-18 21:24:18
Kategoria:TS / CAM / IVO  »  SensacyjneRozmiar:510.71 MB
Język:Wersja ENG  Wersja ENG------------------
Obserwuj:OBSERWUJ TORRENTAStaty:UAKTUALNIJ TRACKER
Download: Pobierz TorrentRaport:RAPORTUJ TORRENTA

reżyseria: Steven Caple Jr.
scenariusz: Sylvester StalloneJuel Taylor
gatunek: DramatSportowy
produkcja: USA
premiera: 23 listopada 2018 (Polska) 11 listopada 2018 (świat)
boxoffice: $166 586 045
nagrody: 2 nominacje

Adonis Creed stara się pogodzić sprawy osobiste z treningami do najważniejszego bokserskiego starcia w karierze. Będzie musiał stanąć na ringu do walki z przeciwnikiem pośrednio związanym z tragedią, która dotknęła niegdyś jego rodzinę. Adonis ma jednak wciąż w swym narożniku Rocky'ego Balboę, który wspiera go we wszystkich trudnych chwilach. Razem stawią czoło demonom przeszłości, podadzą w wątpliwość wyznawane wartości i staną w obronie wspólnego dziedzictwa. Powrót do korzeni pozwoli im zrozumieć, dlaczego stali się bokserskimi legendami.

Michael B. Jordan
Sylvester Stallone
Dolph Lundgren

General
Complete name : F:filmycreed 2[R@KU]Creed 2 2018 NEW-HDCAM X264-UNiQUE.mkv.mp4
Format : MPEG-4
Format profile : Base Media
Codec ID : isom (isom/iso2/avc1/mp41)
File size : 511 MiB
Duration : 2 h 2 min
Overall bit rate : 584 kb/s
Writing application : Lavf57.83.100

Video
ID : 1
Format : AVC
Format/INFO : Advanced Video Codec
Format profile : High@L3.1
Format settings : CABAC / 5 Ref Frames
Format settings, CABAC : Yes
Format settings, RefFrames : 5 frames
Codec ID : avc1
Codec ID/INFO : Advanced Video Coding
Duration : 2 h 2 min
Bit rate : 512 kb/s
Width : 720 pixels
Height : 304 pixels
Display aspect ratio : 2.35:1
Frame rate mode : Constant
Frame rate : 30.000 FPS
Color space : YUV
Chroma subsampling : 4:2:0
Bit depth : 8 bits
Scan type : Progressive
Bits/(Pixel*Frame) : 0.078
Stream size : 448 MiB (88%)
Writing library : x264 core 148 r2643 5c65704
Encoding settings : cabac=1 / ref=5 / deblock=1:0:0 / analyse=0x3:0x113 / me=hex / subme=7 / psy=1 / psy_rd=1.00:0.00 / mixed_ref=1 / me_range=16 / chroma_me=1 / trellis=1 / 8x8dct=1 / cqm=0 / deadzone=21,11 / fast_pskip=1 / chroma_qp_offset=-2 / threads=4 / lookahead_threads=4 / sliced_threads=1 / slices=4 / nr=0 / decimate=1 / interlaced=0 / bluray_compat=0 / constrained_intra=0 / bframes=0 / weightp=2 / keyint=250 / keyint_min=25 / scenecut=40 / intra_refresh=0 / rc=abr / mbtree=0 / bitrate=512 / ratetol=1.0 / qcomp=0.60 / qpmin=0 / qpmax=69 / qpstep=4 / ip_ratio=1.40 / aq=1:1.00
Codec configuration box : avcC

Audio
ID : 2
Format : AAC LC
Format/INFO : Advanced Audio Codec Low Complexity
Codec ID : mp4a-40-2
Duration : 2 h 2 min
Bit rate mode : Constant
Bit rate : 64.4 kb/s
Channel(s) : 2 channels
Channel layout : L R
Sampling rate : 44.1 kHz
Frame rate : 43.066 FPS (1024 SPF)
Compression mode : Lossy
Stream size : 56.3 MiB (11%)
Default : Yes
Alternate group : 1



====================================================

PODOBNE TORRENTY
Life 2017 [720p] [HDCAM] [x264-UNiQUE] [ENG] Nowe Oblicze Greya - Fifty Shades Freed *2018*[NEW] [720p] [HD-TS] [X264-UNiQUE] [ENG] [D.T.H0608] Creed: Narodziny legendy - Creed *2015* [720p] [BluRay] [AC3] [x264-KiT] [Lektor PL] Creed: Narodziny Legendy - Creed *2015* [DVDRip.x264-Złośnicaa] [Lektor PL] Assassins Creed - Assassin's Creed (2016) [1080p.BRRip.x264.AAC-ETRG] [ENG] Creed: Narodziny legendy - Creed *2015* [m1080p] [BluRay] [x264] [AC3-LTN] [Lektor PL]
Szczegóły torrenta
TRACKER
Tracker Podstawowy: udp://tracker.opentrackr.org:1337/announce

Multitrackery:

udp://tracker.opentrackr.org:1337/announce
udp://9.rarbg.to:2710/announce
udp://tracker.openbittorrent.com:80/announce
udp://tracker.opentrackr.org:1337/announce

UAKTUALNIENIE
30/01/2019 10:18:05 (Jeśeli nie widac seeda kliknij na [uaktualnij] by odswieżyć statystyki).
[Lub sprawdź programem do pobierania torrentów, ponieważ niektóre trackery nie wyświetlają statystyk]
2 pliki
 
KOMENTARZE


waistdeep09/02/2019 16.55.11
witam nie można pobrac
Status użytkownika:   09/02/2019 16.55.11  TOP
R@KU18/01/2019 21.49.12
mozna mozna
Status użytkownika:   18/01/2019 21.49.12  TOP
robertsaxon6818/01/2019 21.40.37
nie mozna pobrac
Status użytkownika:   18/01/2019 21.40.37  TOP

DODAJ KOMENTARZ

Zaloguj się aby dodawać komentarze !!!



Wstecz








WRÓĆ NA GÓRĘ