FileTracker.PL - Darmowe polskie torrenty

Witaj drogi Towarzyszu!, jeżeli widzisz ten dymek to znaczy że nie jesteś jeszcze zarejestrowany/zalogowany. Kliknij by się zarejestrować . Rejestracja zajmie mniej niż 30 sekund, a dzięki niej zyskasz możliwość pobierania, komentowania oraz dodawania torrentów !
User:  Hasło:     



Kategorie


Detale Torrenta


Teoria wszystkiego - The Theory of Everything (2014) [1080p.AC3.BDRip.x264-gix] [Lektor PL] [AT-Team]

S: 3L: 0P: 80
Dodał: gixerk9 Tracker:
Kondycja:Dodane:2015-03-29 20:58:15
Kategoria:Filmy X264 / H264  »  BiograficzneRozmiar:2.22 GB
Język:Lektor PL  Lektor PL------------------
Obserwuj:OBSERWUJ TORRENTAStaty:UAKTUALNIJ TRACKER
Download: Pobierz TorrentRaport:RAPORTUJ TORRENTA


reżyseria: James Marsh
scenariusz: Anthony McCarten
gatunek: Biograficzny, Dramat
produkcja: Wielka Brytania
premiera: 30 stycznia 2015 (Polska) 7 września 2014 (świat)



Eddie Redmayne - Stephen Hawking
Felicity Jones - Jane Hawking
Charlie Cox - Jonathan Hellyer Jones
Emily Watson - Beryl Wilde
Simon McBurney - Frank Hawking
David Thewlis - Dennis Sciama
Maxine Peake - Elaine Mason
Harry Lloyd - Brian



Poruszająca opowieść o życiu u boku geniusza, jednego z największych naukowców wszechczasów - Stephena Hawkinga (Eddie Redmayne), twórcy teorii czarnych dziur, wybitnego matematyka, sławy akademickiej i pisarza. Hawking poślubił Jane Wilde (Felicity Jones) w 1965 r. Spędzili ze sobą prawie trzydzieści lat. Coś, co początkowo zapowiadało się na sielankę, okazało się trudną przeprawą przez wyniszczającą organizm Hawkinga chorobę (stwardnienie zanikowe boczne). Historia o tym, kiedy geniusz zderza się ze słabością. Ale też wnikliwy, inteligentny obraz postępującego rozpadu małżeństwa.











Format : MPEG-4
Format profile : Base Media
Codec ID : isom
File size : 2.22 GiB
Duration : 2h 3mn
Overall bit rate : 2 574 Kbps
Movie name : Teoria wszystkiego (2014) Rip by gixerk9 [AT-Team]
Writing application : Lavf56.26.101

Video
ID : 1
Format : AVC
Format/INFO : Advanced Video Codec
Format profile : [email protected]
Format settings, CABAC : Yes
Format settings, ReFrames : 4 frames
Codec ID : avc1
Codec ID/INFO : Advanced Video Coding
Duration : 2h 3mn
Bit rate : 2 187 Kbps
Width : 1 920 pixels
Height : 800 pixels
Display aspect ratio : 2.40:1
Frame rate mode : Constant
Frame rate : 23.976 fps
Standard : Component
Color space : YUV
Chroma subsampling : 4:2:0
Bit depth : 8 bits
Scan type : Progressive
Bits/(Pixel*Frame) : 0.059
Stream size : 1.88 GiB (85%)
Writing library : x264 core 146 r2538
Color range : Limited

Audio
ID : 2
Format : AC-3
Format/INFO : Audio Coding 3
Mode extension : CM (complete main)
Format settings, Endianness : Big
Codec ID : ac-3
Duration : 2h 3mn
Bit rate mode : Constant
Bit rate : 384 Kbps
Channel(s) : 6 channels
Channel positions : Front: L C R, Side: L R, LFE
Sampling rate : 48.0 KHz
Bit depth : 16 bits
Compression mode : Lossy
Stream size : 339 MiB (15%)
Language : Polish

====================================================

PODOBNE TORRENTY
Teoria wszystkiego - The Theory of Everything *2014* [DVDRip RMVB] [Lektor PL] Teoria wszystkiego - The Theory of Everything *2014* [BRRip] [XviD-KiT] [Lektor PL] Teoria wszystkiego / The Theory of Everything (2014) [BRRip] [XviD-KiT] [Lektor PL] Teoria wszystkiego / The Theory of Everything (2014) [BRRip] [XviD-GR4PE] [Lektor PL] Teoria wszystkiego - The Theory of Everything *2014* [720p.BrRip.XviD.DD5.1-MAXX] [Lektor PL] Teoria wszystkiego - The Theory of Everything *2014* [ 720p.BrRip.XviD.DD5.1-MAXX] [Lektor PL]
Szczegóły torrenta
TRACKER
Tracker Podstawowy: http://tracker.aletorrenty.pl:2710/announce

Multitrackery:

http://tracker.aletorrenty.pl:2710/announce
http://94.228.192.98/announce
http://www.tlv.cc:7777/announce
http://exodus.desync.com:6969/announce
http://inferno.demonoid.ph:3389/announce
udp://pow7.com:80/announce
udp://tracker.aletorrenty.pl:2710/announce
udp://open.demonii.com:1337/announce
udp://9.rarbg.com:2710/announce
http://bigfoot1942.sektori.org:6969/announce
http://bttracker.crunchbanglinux.org:6969/announce
udp://tracker.prq.to:80/announce

UAKTUALNIENIE
27/08/2020 18:30:25 (Jeśeli nie widac seeda kliknij na [uaktualnij] by odswieżyć statystyki).
[Lub sprawdź programem do pobierania torrentów, ponieważ niektóre trackery nie wyświetlają statystyk]
5 pliki
 
KOMENTARZE


Brak komentarzy...

DODAJ KOMENTARZ

Zaloguj się aby dodawać komentarze !!!



Wstecz








WRÓĆ NA GÓRĘ