FileTracker.PL - Darmowe polskie torrenty

Witaj drogi Towarzyszu!, jeżeli widzisz ten dymek to znaczy że nie jesteś jeszcze zarejestrowany/zalogowany. Kliknij by się zarejestrować . Rejestracja zajmie mniej niż 30 sekund, a dzięki niej zyskasz możliwość pobierania, komentowania oraz dodawania torrentów !
User:  Hasło:     



Kategorie


Detale Torrenta


Gra tajemnic - The Imitation Game *2014* [720p] [BluRay] [X264-AMIABLE] [ENG]

S: 677L: 3276P: 10
Dodał: Tracker:
Kondycja:Dodane:2015-03-04 10:04:34
Kategoria:Filmy X264 / H264  »  BiograficzneRozmiar:5.47 GB
Język:Wersja ENG  Wersja ENG------------------
Obserwuj:OBSERWUJ TORRENTAStaty:UAKTUALNIJ TRACKER
Download: Pobierz TorrentRaport:RAPORTUJ TORRENTA


Tytuł: The Imitation Game / Gra tajemnic
Ocena: IMDB - 8.2/10 (160968), Filmweb - 7.4/10 (46424)
Produkcja: USA, Wielka Brytania
Gatunek: Biograficzny, Dramat
Czas trwania: 113 min.
Premiera: 16.01.2015 - Polska, 29.08.2014 - Świat
Reżyseria: Morten Tyldum
Scenariusz: Graham Moore, Graham Moore



Historia niezwykle utalentowanego Alana Turinga, brytyjskiego matematyka, który w kluczowym momencie II wojny światowej złamał niemiecki kod Enigma. Zespół najbardziej utalentowanych ludzi na świecie pracuje pod okiem genialnego Alana Turinga nad złamaniem skomplikowanego kodu, którym posługują się naziści. Ich niesamowite dokonania, oparte częściowo na pracy polskich naukowców, pozwalają położyć kres najbardziej okrutnej wojnie w historii dużo wcześniej, niż wydawało się to możliwe. Po tych wydarzeniach Turing w blasku chwały przystępuje do badań, których efektem będzie największa rewolucja naszych czasów – powstanie komputera. Mimo niesamowitych zasług, ekscentryczny geniusz wpadnie w poważne kłopoty, które doprowadzą do nieoczekiwanego zwrotu w tej fascynującej historii.



Benedict Cumberbatch..... - Alan Turing
Keira Knightley.......... - Joan Clarke
Matthew Goode............ - Hugh Alexander
Rory Kinnear............. - Detektyw Robert Nock
Allen Leech.............. - John Cairncross
Matthew Beard............ - Peter Hilton
Charles Dance............ - Komandor Denniston
Mark Strong.............. - Stewart Menzies



https://www.filmweb.pl/film/Gra+tajemnic-2014-644005
https://www.imdb.com/title/tt2084970/









Video
ID : 1
Format : AVC
Format/INFO : Advanced Video Codec
Format profile : [email protected]
Format settings, CABAC : Yes
Format settings, ReFrames : 5 frames
Codec ID : V_MPEG4/ISO/AVC
Duration : 1h 54mn
Bit rate : 5 338 Kbps
Width : 1 280 pixels
Height : 536 pixels
Display aspect ratio : 2.40:1
Frame rate mode : Constant
Frame rate : 23.976 fps
Color space : YUV
Chroma subsampling : 4:2:0
Bit depth : 8 bits
Scan type : Progressive
Bits/(Pixel*Frame) : 0.325
Stream size : 4.15 GiB (76%)
Writing library : x264 core 144 r2525 40bb568
Encoding settings : cabac=1 / ref=5 / deblock=1:-3:-3 / analyse=0x3:0x113 / me=umh / subme=8 / psy=1 / psy_rd=1.00:0.00 / mixed_ref=1 / me_range=16 / chroma_me=1 / trellis=1 / 8x8dct=1 / cqm=0 / deadzone=21,11 / fast_pskip=1 / chroma_qp_offset=-2 / threads=6 / lookahead_threads=1 / sliced_threads=0 / nr=0 / decimate=1 / interlaced=0 / bluray_compat=0 / constrained_intra=0 / bframes=3 / b_pyramid=2 / b_adapt=2 / b_bias=0 / direct=3 / weightb=1 / open_gop=0 / weightp=2 / keyint=240 / keyint_min=24 / scenecut=40 / intra_refresh=0 / rc_lookahead=50 / rc=2pass / mbtree=1 / bitrate=5338 / ratetol=1.0 / qcomp=0.60 / qpmin=0 / qpmax=69 / qpstep=4 / cplxblur=20.0 / qblur=0.5 / ip_ratio=1.40 / aq=1:1.00
Language : English
Default : Yes
Forced : No

Audio
ID : 2
Format : DTS
Format/INFO : Digital Theater Systems
Mode : 16
Format settings, Endianness : Big
Codec ID : A_DTS
Duration : 1h 54mn
Bit rate mode : Constant
Bit rate : 1 509 Kbps
Channel(s) : 6 channels
Channel positions : Front: L C R, Side: L R, LFE
Sampling rate : 48.0 KHz
Bit depth : 24 bits
Compression mode : Lossy
Stream size : 1.20 GiB (22%)
Language : English
Default : Yes
Forced : No

Text #1
ID : 3
Format : UTF-8
Codec ID : S_TEXT/UTF8
Codec ID/INFO : UTF-8 Plain Text
Title : SDH
Language : English
Default : No
Forced : No

Text #2
ID : 4
Format : UTF-8
Codec ID : S_TEXT/UTF8
Codec ID/INFO : UTF-8 Plain Text
Language : English
Default : No
Forced : No

Menu
00:00:00.000 : en:00:00:00.000
00:07:58.895 : en:00:07:58.895
00:20:20.010 : en:00:20:20.010
00:28:20.032 : en:00:28:20.032
00:36:59.050 : en:00:36:59.050
00:46:37.128 : en:00:46:37.128
00:57:27.527 : en:00:57:27.527
01:09:35.088 : en:01:09:35.088
01:23:46.688 : en:01:23:46.688
01:29:29.239 : en:01:29:29.239
01:35:09.913 : en:01:35:09.913
01:42:10.499 : en:01:42:10.499


====================================================

PODOBNE TORRENTY
Gra tajemnic - The Imitation Game *2014* [720p] [BluRay] [AC3] [x264-K12] [Lektor PL] Gra tajemnic / The Imitation Game (2014) [720p.BluRay.x264.AC3-K12] [Lektor PL] Gra tajemnic - The Imitation Game *2014* [720p] [BrRip] [x264-YIFY] [ENG] Gra Tajemnic - The Imitation Game *2014* [720p] [BDRip] [x264] [AC3-MiNS] [Lektor PL] Gra Tajemnic - The Imitation Game *2014* [BDRip] [x264-MiNS] [Lektor PL] Gra tajemnic - The Imitation Game *2014* [.480p.BDRip.x264.AC3] [Lektor PL]
Szczegóły torrenta
TRACKER
Tracker Podstawowy: udp://open.demonii.com:1337/announce

Multitrackery:

udp://open.demonii.com:1337/announce
udp://tracker.publicbt.com:80/announce
udp://tracker.openbittorrent.com:80/announce
udp://tracker.istole.it:80/announce
http://tracker.trackerfix.com/announce
udp://9.rarbg.com:2710/announce
udp://12.rarbg.me:80/announce
udp://10.rarbg.me:80/announce
udp://11.rarbg.me:80/announce
udp://9.rarbg.me:2710/announce

UAKTUALNIENIE
23/07/2020 18:41:46 (Jeśeli nie widac seeda kliknij na [uaktualnij] by odswieżyć statystyki).
[Lub sprawdź programem do pobierania torrentów, ponieważ niektóre trackery nie wyświetlają statystyk]
5 pliki
 
KOMENTARZE


Brak komentarzy...

DODAJ KOMENTARZ

Zaloguj się aby dodawać komentarze !!!



Wstecz








WRÓĆ NA GÓRĘ