FileTracker.PL - Darmowe polskie torrenty

Witaj drogi Towarzyszu!, jeżeli widzisz ten dymek to znaczy że nie jesteś jeszcze zarejestrowany/zalogowany. Kliknij by się zarejestrować . Rejestracja zajmie mniej niż 30 sekund, a dzięki niej zyskasz możliwość pobierania, komentowania oraz dodawania torrentów !
User:  Hasło:     



Kategorie


Detale Torrenta


 Braveheart Waleczne Serce *1995* [1080p.DTS.60FPS] (Lektor i Napisy PL)

S: 0L: 1P: 55
Dodał: Wolverine Tracker:
Kondycja:Dodane:2018-08-17 15:57:28
Kategoria:Filmy X264 / H264  »  Dramat historycznyRozmiar:20.64 GB
Język:Lektor PL  Lektor PL------------------
Obserwuj:OBSERWUJ TORRENTAStaty:UAKTUALNIJ TRACKER
Download: Pobierz TorrentRaport:RAPORTUJ TORRENTA



reżyseria: Mel Gibson
scenariusz: Randall Wallace
gatunek: Dramat historyczny
produkcja: USA
premiera: 8 września 1995 (Polska) 18 maja 1995 (świat)




Pod koniec XIII wieku Szkocja dostaje się pod panowanie angielskiego króla, Edwarda I. Przejęcie władzy odbywa się w wyjątkowo krwawych okolicznościach. Jednym ze świadków gwałtów i morderstw jest kilkunastoletni chłopak, William Wallace. Po latach spędzonych pod opieką wuja dorosły William wraca do rodzinnej wioski. Jedną z pierwszych osób, które spotyka, jest Murron - przyjaciółka z lat dzieciństwa. Dawne uczucie przeradza się w wielką i szczerą miłość. Niestety wkrótce dziewczyna ginie z rąk angielskich żołnierzy. Wydarzenie to staje się to momentem przełomowym w życiu młodego Szkota. William decyduje się bowiem na straceńczą walkę z okupantem i po brawurowym ataku zdobywa warownię wroga. Dzięki ogromnej odwadze zostaje wykreowany na przywódcę powstania przeciw angielskiej tyranii..



Mel Gibson jako William Wallace
Sophie Marceau jako Księżniczka Isabelle
Patrick McGoohan jako Król Edward I Długonogi
Catherine McCormack jako Murron
Angus Macfadyen jako Robert Bruce
Brendan Gleeson jako Hamish
David O'Hara jako Stephen
Ian Bannen jako Trędowaty



Video
ID : 2
Format : AVC
Format/INFO : Advanced Video Codec
Format profile : [email protected]
Format settings, CABAC : Yes
Format settings, ReFrames : 4 frames
Codec ID : V_MPEG4/ISO/AVC
Duration : 2 h 57 min
Bit rate : 13.1 Mb/s
Width : 1 920 pixels
Height : 816 pixels
Display aspect ratio : 2.35:1
Frame rate mode : Constant
Frame rate : 59.940 (59940/1000) FPS
Color space : YUV
Chroma subsampling : 4:2:0
Bit depth : 8 bits
Scan type : Progressive
Bits/(Pixel*Frame) : 0.139
Stream size : 16.2 GiB (79%)
Writing library : x264 core 142 r2479 dd79a61
Encoding settings : cabac=1 / ref=4 / deblock=1:-1:-1 / analyse=0x3:0 / me=umh / subme=11 / psy=1 / psy_rd=1.00:0.10 / mixed_ref=1 / me_range=42 / chroma_me=0 / trellis=2 / 8x8dct=1 / cqm=0 / deadzone=21,11 / fast_pskip=0 / chroma_qp_offset=-3 / threads=12 / lookahead_threads=1 / sliced_threads=0 / nr=0 / decimate=0 / interlaced=0 / bluray_compat=0 / constrained_intra=0 / bframes=5 / b_pyramid=2 / b_adapt=2 / b_bias=0 / direct=1 / weightb=1 / open_gop=0 / weightp=2 / keyint=599 / keyint_min=59 / scenecut=40 / intra_refresh=0 / rc=crf / mbtree=0 / crf=18.0 / qcomp=0.60 / qpmin=0 / qpmax=69 / qpstep=4 / ip_ratio=1.40 / pb_ratio=1.30 / aq=1:0.90
Language : English
Default : Yes
Forced : No

Audio #1
ID : 1
Format : DTS
Format/INFO : Digital Theater Systems
Format profile : HRA / Core
Mode : 16
Format settings, Endianness : Big
Codec ID : A_DTS
Duration : 2 h 57 min
Bit rate mode : Constant
Bit rate : 3 018 kb/s / 1 509 kb/s
Channel(s) : 6 channels
Channel positions : Front: L C R, Side: L R, LFE
Sampling rate : 48.0 kHz
Frame rate : 93.750 FPS (512 spf)
Bit depth : 24 bits
Compression mode : Lossy
Delay relative to video : 10 ms
Stream size : 3.75 GiB (18%)
Language : English
Default : No
Forced : No

Audio #2
ID : 3
Format : AC-3
Format/INFO : Audio Coding 3
Mode extension : CM (complete main)
Format settings, Endianness : Big
Codec ID : A_AC3
Duration : 2 h 57 min
Bit rate mode : Constant
Bit rate : 512 kb/s
Channel(s) : 6 channels
Channel positions : Front: L C R, Side: L R, LFE
Sampling rate : 48.0 kHz
Frame rate : 31.250 FPS (1536 spf)
Bit depth : 16 bits
Compression mode : Lossy
Delay relative to video : 3 s 450 ms
Stream size : 651 MiB (3%)
Title : Polski
Language : Polish
Default : Yes
Forced : No

====================================================

PODOBNE TORRENTY
Braveheart - Waleczne Serce  Braveheart (1995) [1080p] [HDTV.Rip] [H264] [LEKTOR PL] Braveheart - Waleczne Serce - Braveheart (1995) [720p] [BRRip.XviD.AC3-HDW] [Lektor PL] Braveheart - Waleczne Serce / Braveheart (1995) [BRRip] [XviD-GR4PE] [Lektor PL] [Karibu] Waleczne Serce - Braveheart (1995) [1080P] [BLURAY] [H264] [AC3(5.1)E1973] [LEKTOR PL] Waleczne Serce - Braveheart (1995) [3CD] [AC3.DVDRip.XviD] [Lektor PL] Braveheart - Waleczne Serce *1995* [DVDRip] [XviD-NN] [Lektor PL]
Szczegóły torrenta
TRACKER
Tracker Podstawowy: udp://tracker.opentrackr.org:1337/announce

Multitrackery:

udp://tracker.opentrackr.org:1337/announce
http://tracker.electro-torrent.pl/announce

UAKTUALNIENIE
04/03/2020 00:21:15 (Jeśeli nie widac seeda kliknij na [uaktualnij] by odswieżyć statystyki).
[Lub sprawdź programem do pobierania torrentów, ponieważ niektóre trackery nie wyświetlają statystyk]
2 pliki
 
KOMENTARZE


Brak komentarzy...

DODAJ KOMENTARZ

Zaloguj się aby dodawać komentarze !!!



Wstecz








WRÓĆ NA GÓRĘ