FileTracker.PL - Darmowe polskie torrenty

Witaj drogi Towarzyszu!, jeżeli widzisz ten dymek to znaczy że nie jesteś jeszcze zarejestrowany/zalogowany. Kliknij by się zarejestrować . Rejestracja zajmie mniej niż 30 sekund, a dzięki niej zyskasz możliwość pobierania, komentowania oraz dodawania torrentów !
User:  Hasło:     



Kategorie


Detale Torrenta


Chris Rea: Montreux Jazz Festival (2014)[TVHDRip 1080p x264 by alE13 AC3] [Subtitles ENG] [ENG]

S: 1L: 1P: 113
Dodał: alE13 Tracker:
Kondycja:Dodane:2018-07-24 05:46:54
Kategoria:Filmy 720p / 1080p  »  KoncertyRozmiar:6.99 GB
Język:Wersja ENG  Wersja ENG------------------
Obserwuj:OBSERWUJ TORRENTAStaty:UAKTUALNIJ TRACKER
Download: Pobierz TorrentRaport:RAPORTUJ TORRENTA




Plik zawiera Sample.

data: 2014
gatunek: Blues, rock, pop
reżyseria: Julian Nicole-Kay
wydano: Szwajcaria
czas: 00:50:42



Christopher Anton Rea (born 4 March 1951) is an English singer-songwriter and guitarist,
recognisable for his distinctive, husky voice and slide guitar playing.The British Hit Singles & Albums
stated that Rea was "one of the most popular UK singer-songwriters of the late 1980s. He was already
a major European star by the time he finally cracked the UK Top 10 with his 18th chart entry;
"The Road to Hell (Part 2)". As of 2009, he has sold more than 30 million albums worldwide.

more:

https://en.wikipedia.org/wiki/Chris_Rea

Nad brzegiem Jeziora Genewskiego już po raz 48 odbył się słynny Montreux Jazz Festival,
a do 19 lipca było kilkadziesiąt legendarnych koncertów. Festiwal jazzowy w szwajcarskim
Montreux trwał dwa tygodnie. W dużej sali w jeden z wieczorów wystąpił haryzmatyczny gitarzysta
i piosenkarz Chrisa Rea, który wszedł już do panteonu legend.

Christopher Anton "Chris" Rea (ur. 4 marca 1951 w Middlesbrough), brytyjski gitarzysta, piosenkarz,
autor tekstów. Rea sprzedał ponad 30 milionów egzemplarzy swoich płyt na całym świecie.

Chris Rea zaczynał w 1973 roku, w lokalnym zespole Magdalene. Zastąpił Davida Coverdale'a, który odszedł
do Deep Purple. W 1975 roku grupa zmieniła nazwę na Beautiful Losers i wygrała krajowy konkurs talentów.
Dwa lata później Rea opuścił zespół i rozpoczął karierę solową.

więcej:

https://pl.wikipedia.org/wiki/Chris_Rea








1. Last Open Road
2. Long Gone
3. Where the Blues Come From
4. Josephine
5. The Truth
6. 'Til The Morning Sun Shines on My Love and Me
7. Still So Far to Go
8. Stainsby Girls
9. The Road to Hell




Chris Rea-Montreux Jazz Festival (2014)-alE13.mkv
Format : Matroska
Format version : Version 4 / Version 2
File size : 6.93 GiB
Duration : 50 min 42 s
Overall bit rate : 19.6 Mb/s
Movie name : Chris Rea: Montreux Jazz Festival (2014)-alE13
Encoded date : UTC 2018-07-24 03:13:22
Writing application : mkvmerge v8.1.0 ('Psychedelic Postcard') 64bit
Writing library : libebml v1.3.1 + libmatroska v1.4.2
Cover : Yes
Attachments : Cover.jpg

Video
ID : 1
Format : MPEG-4 Visual
Format settings : BVOP2
Format settings, BVOP : 2
Format settings, QPel : No
Format settings, GMC : No warppoints
Format settings, Matrix : Default (H.263)
Muxing mode : Packed bitstream
Codec ID : V_MS/VFW/FOURCC / DX50
Codec ID/Hint : DivX 5
Duration : 50 min 42 s
Bit rate : 19.2 Mb/s
Nominal bit rate : 6 896 kb/s
Width : 1 920 pixels
Height : 1 080 pixels
Display aspect ratio : 16:9
Frame rate mode : Constant
Frame rate : 30.000 FPS
Color space : YUV
Chroma subsampling : 4:2:0
Bit depth : 8 bits
Scan type : Progressive
Compression mode : Lossy
Bits/(Pixel*Frame) : 0.308
Stream size : 6.79 GiB (98%)
Title : Chris Rea: Montreux Jazz Festival (2014)-alE13
Writing library : DivX 2682
Default : Yes
Forced : No

Audio
ID : 2
Format : AC-3
Format/INFO : Audio Coding 3
Codec ID : A_AC3
Duration : 50 min 42 s
Bit rate mode : Constant
Bit rate : 384 kb/s
Channel(s) : 6 channels
Channel positions : Front: L C R, Side: L R, LFE
Sampling rate : 48.0 kHz
Frame rate : 31.250 FPS (1536 SPF)
Bit depth : 16 bits
Compression mode : Lossy
Stream size : 139 MiB (2%)
Title : Chris Rea: Montreux Jazz Festival (2014)-alE13_AC3
Language : English
Service kind : Complete Main
Default : Yes
Forced : No

Text
ID : 3
Format : UTF-8
Codec ID : S_TEXT/UTF8
Codec ID/INFO : UTF-8 Plain Text
Duration : 42 min 27 s
Bit rate : 0 b/s
Count of elements : 8
Stream size : 179 Bytes (0%)
Title : Chris Rea: Montreux Jazz Festival (2014)-alE13
Language : English
Default : Yes
Forced : No

Menu
00:00:00.000 : :Last Open Road
00:05:34.623 : :Long Gone
00:09:17.804 : :Where the Blues Come From
00:14:35.899 : :Josephine
00:20:19.870 : :The Truth
00:23:28.955 : :Til The Morning Sun Shines on My Love and Me
00:29:38.324 : :Still So Far to Go
00:34:44.667 : :Stainsby Girls
00:42:00.823 : :The Road to Hell



====================================================

PODOBNE TORRENTY
Dolly Parton: Glastonbury Festival (2014)[TVHDRip 1080p x264 by alE13 AC3] [ENG] VA-CMA Music Festival-Country's Night to Rock (2015)[TVHDRip.1080p.x264-by alE13.AC3] [ENG] CAPTAIN BEYOND - MONTREUX JAZZ FESTIVAL 1971 [DVD5] [FALLEN ANGEL] BUSTER WILLIAMS QUARTET - LIVE AT MONTREUX JAZZ FESTIVAL 1999 (2008) [FLAC] [FALLEN ANGEL] Willie Nelson: Live at SXSW iTunes festival (2014)[WebRip 1080p x264 by alE13 AC3/AAC] [ENG] Muddy Waters & The Rolling Stones-Live At Checkerboard Lounge 1981(2012)-alE13[TVHDRip.720p.x264-by alE13.AC3] [ENG]
Szczegóły torrenta
TRACKER
Tracker Podstawowy: udp://tracker.opentrackr.org:1337/announce

Multitrackery:

udp://tracker.opentrackr.org:1337/announce
udp://tracker.coppersurfer.tk:6969/announce
udp://tracker.leechers-paradise.org:6969/announce
udp://inferno.demonoid.pw:3391/announce
http://tracker.torrentyorg.pl/announce
udp://p4p.arenabg.ch:1337/announce
http://tracker.devil-torrents.pl/announce
udp://tracker.ilibr.org:80/announce

UAKTUALNIENIE
26/12/2019 14:15:53 (Jeśeli nie widac seeda kliknij na [uaktualnij] by odswieżyć statystyki).
[Lub sprawdź programem do pobierania torrentów, ponieważ niektóre trackery nie wyświetlają statystyk]
15 pliki
 
KOMENTARZE


Brak komentarzy...

DODAJ KOMENTARZ

Zaloguj się aby dodawać komentarze !!!



Wstecz








WRÓĆ NA GÓRĘ