FileTracker.PL - Darmowe polskie torrenty

Witaj drogi Towarzyszu!, jeżeli widzisz ten dymek to znaczy że nie jesteś jeszcze zarejestrowany/zalogowany. Kliknij by się zarejestrować . Rejestracja zajmie mniej niż 30 sekund, a dzięki niej zyskasz możliwość pobierania, komentowania oraz dodawania torrentów !
User:  Hasło:     



Kategorie


Detale Torrenta


SexiPistols/Bandidas (2006)[BDRip 1080p x264 by alE13 AC3] [Lektor i Napisy PL/ENG] [ENG]

S: 0L: 4P: 66
Dodał: Wolverine Tracker:
Kondycja:Dodane:2018-06-11 08:08:58
Kategoria:Filmy X264 / H264  »  WesternRozmiar:7.81 GB
Język:Lektor PL  Lektor PL------------------
Obserwuj:OBSERWUJ TORRENTAStaty:UAKTUALNIJ TRACKER
Download: Pobierz TorrentRaport:RAPORTUJ TORRENTA



https://i.imgur.com/bkXabLk.jpg

https://www.imdb.com/title/tt0416496/
https://www.filmweb.pl/Sexipistols

Plik zawiera Sample.

reżyseria: Joachim Rønning,Espen Sandberg
scenariusz: Luc Besson,Robert Mark Kamen
gatunek: Komedia,Western
produkcja: Francja,Meksyk,USA
premiera: 18-01-2006
muzyka: Éric Serra
zdjęcia: Thierry Arbogast
czas: 1 h 32 min



In turn-of-the-century Mexico, two very different women become a bank-robbing
duo in an effort to combat a ruthless enforcer terrorizing their town.

Pierwsze, wystrzałowe spotkanie dwóch piękności Hollywood: Salmy Hayek i Penélope Cruz w
najnowszej komedii przygodowej autorstwa Luca Bessona. Dwie młode i śliczne panny postanawiają
walczyć z niesprawiedliwością na świecie... napadając na banki! Jedna z nich to wykształcona
dama z dobrego domu, a druga, to sierota o twardym charakterze. Ich przyjaźń to istny dynamit,
który może wybuchnąć w każdej chwili, ale to nie ich uroda spędza mężczyznom sen z powiek. Lont
zostaje podpalony przez kilku typów spod ciemnej gwiazdy, którzy mają zamiar sprzedać Meksyk.
Zanim jednak bandyci zabiorą się za realizację niecnego planu, przebojowe dziewczyny rozpętają
istne trzęsienie ziemi. Tym razem to nie twardziele z Rio Bravo rządzą Dzikim Zachodem, a dwie
piękne niewiasty… Który z mężczyzn nie chciałby stanąć oko w oko z jedną z nich?



Penélope Cruz, Salma Hayek, Dwight Yoakam, Steve Zahn



Bandidas (2006)-alE13.mkv
Format : Matroska
Format version : Version 4 / Version 2
File size : 7.75 GiB
Duration : 1 h 32 min
Overall bit rate : 12.0 Mb/s
Movie name : Bandidas (2006)-alE13
Encoded date : UTC 2018-06-06 19:28:06
Writing application : mkvmerge v8.1.0 ('Psychedelic Postcard') 64bit
Writing library : libebml v1.3.1 + libmatroska v1.4.2
Cover : Yes
Attachments : Cover.jpg

Video
ID : 1
Format : AVC
Format/INFO : Advanced Video Codec
Format profile : High@L4.1
Format settings : CABAC / 2 Ref Frames
Format settings, CABAC : Yes
Format settings, ReFrames : 2 frames
Codec ID : V_MPEG4/ISO/AVC
Duration : 1 h 32 min
Bit rate : 11.1 Mb/s
Width : 1 920 pixels
Height : 812 pixels
Display aspect ratio : 2.35:1
Frame rate mode : Constant
Frame rate : 23.976 (24000/1001) FPS
Color space : YUV
Chroma subsampling : 4:2:0
Bit depth : 8 bits
Scan type : Progressive
Bits/(Pixel*Frame) : 0.296
Stream size : 7.17 GiB (92%)
Title : Bandidas (2006)-alE13_AC3
Writing library : x264 core 142
Default : Yes
Forced : No
Color range : Limited
Color primaries : BT.709
Transfer characteristics : BT.709
Matrix coefficients : BT.709

Audio #1
ID : 2
Format : AC-3
Format/INFO : Audio Coding 3
Codec ID : A_AC3
Duration : 1 h 32 min
Bit rate mode : Constant
Bit rate : 640 kb/s
Channel(s) : 6 channels
Channel positions : Front: L C R, Side: L R, LFE
Sampling rate : 48.0 kHz
Frame rate : 31.250 FPS (1536 SPF)
Bit depth : 16 bits
Compression mode : Lossy
Stream size : 425 MiB (5%)
Title : Bandidas (2006)-alE13_AC3
Language : English
Service kind : Complete Main
Default : No
Forced : No

Audio #2
ID : 3
Format : AC-3
Format/INFO : Audio Coding 3
Codec ID : A_AC3
Duration : 1 h 32 min
Bit rate mode : Constant
Bit rate : 256 kb/s
Channel(s) : 2 channels
Channel positions : Front: L R
Sampling rate : 44.1 kHz
Frame rate : 28.711 FPS (1536 SPF)
Bit depth : 16 bits
Compression mode : Lossy
Delay relative to video : 3 s 16 ms
Stream size : 170 MiB (2%)
Title : Bandidas (2006)-alE13_AC3
Language : Polish
Service kind : Complete Main
Default : Yes
Forced : No

Text #1
ID : 4
Format : UTF-8
Codec ID : S_TEXT/UTF8
Codec ID/INFO : UTF-8 Plain Text
Duration : 1 h 25 min
Bit rate : 57 b/s
Count of elements : 899
Stream size : 36.2 KiB (0%)
Title : Bandidas (2006)-alE13
Language : Polish
Default : No
Forced : No

Text #2
ID : 5
Format : UTF-8
Codec ID : S_TEXT/UTF8
Codec ID/INFO : UTF-8 Plain Text
Duration : 1 h 25 min
Bit rate : 50 b/s
Count of elements : 803
Stream size : 31.4 KiB (0%)
Title : Bandidas (2006)-alE13_Full
Language : English
Default : No
Forced : No

Menu
00:00:00.000 : en:Chapter 01
00:07:05.383 : en:Chapter 02
00:14:03.760 : en:Chapter 03
00:21:37.546 : en:Chapter 04
00:30:19.735 : en:Chapter 05
00:38:26.346 : en:Chapter 06
00:48:15.309 : en:Chapter 07
00:56:51.867 : en:Chapter 08
01:05:44.566 : en:Chapter 09
01:22:45.544 : en:Chapter 10

====================================================

PODOBNE TORRENTY
SEXiPIStOLS - Bandidas *2006* [DVDRip.x264-Złośnicaa] [Lektor PL] SEXiPIStOLS - Bandidas (2006) [DVDRip.XviD] [Lektor PL] SEXiPIStOLS - Bandidas (2006) [DVDRip] [RMVB] [Lektor PL] SEXiPIStOLS / Bandidas (2006) [DVDRip.XviD] [AC3-GR4PE] [Lektor PL] As w Rękawie/Smokin Aces (2006)[BDRip 1080p x264 by alE13 AC3/DTS] [Lektor i Napisy PL/ENG] [ENG] Za cenę życia/10th & Wolf (2006)[BDRip 1080p x264 by alE13 AC3] [Lektor i Napisy PL/ENG/Ger] [ENG]
Szczegóły torrenta
TRACKER
Tracker Podstawowy: udp://tracker.coppersurfer.tk:6969/announce

Multitrackery:

udp://tracker.coppersurfer.tk:6969/announce
udp://tracker.leechers-paradise.org:6969/announce
udp://tracker.opentrackr.org:1337/announce
udp://inferno.demonoid.pw:3391/announce
http://tracker.torrentyorg.pl/announce
http://tracker.devil-torrents.pl/announce
udp://tracker.ilibr.org:80/announce
udp://p4p.arenabg.ch:1337/announce

UAKTUALNIENIE
17/12/2020 12:39:49 (Jeśeli nie widac seeda kliknij na [uaktualnij] by odswieżyć statystyki).
[Lub sprawdź programem do pobierania torrentów, ponieważ niektóre trackery nie wyświetlają statystyk]
17 pliki
 
KOMENTARZE


Brak komentarzy...

DODAJ KOMENTARZ

Zaloguj się aby dodawać komentarze !!!



Wstecz








WRÓĆ NA GÓRĘ