FileTracker.PL - Darmowe polskie torrenty

Witaj drogi Towarzyszu!, jeżeli widzisz ten dymek to znaczy że nie jesteś jeszcze zarejestrowany/zalogowany. Kliknij by się zarejestrować . Rejestracja zajmie mniej niż 30 sekund, a dzięki niej zyskasz możliwość pobierania, komentowania oraz dodawania torrentów !
User:  Hasło:     



Kategorie


Detale Torrenta


Rewolwerowiec/The Shootist (1976)[BDRip 1080p x264 by alE13 AC3/DTS] [Lektor i Napisy PL/ENG] [ENG]

S: 0L: 3P: 41
Dodał: Wolverine Tracker:
Kondycja:Dodane:2018-04-21 13:00:19
Kategoria:Filmy X264 / H264  »  WesternRozmiar:8.06 GB
Język:Lektor PL  Lektor PL------------------
Obserwuj:OBSERWUJ TORRENTAStaty:UAKTUALNIJ TRACKER
Download: Pobierz TorrentRaport:RAPORTUJ TORRENTA



https://i.imgur.com/hYzxA8u.jpg

https://www.imdb.com/title/tt0075213/
https://www.filmweb.pl/film/Rewolwerowiec-1976-9158

Plik zawiera Sample.

reżyseria: Don Siegel
scenariusz:Scott Hale, Miles Hood Swarthout
gatunek: Western
produkcja:USA
premiera: 21-07-1976
muzyka:Elmer Bernstein
zdjęcia:Bruce Surtees
czas: 1h 38min



A dying gunfighter spends his last days looking for a way to die with a minimum of pain and a maximum of dignity.

John dowiaduje się, że jest nieuleczalnie chory na raka i zostało mu kilka tygodni życia. Przed śmiercią zamierza
wyrównać rachunki ze swoimi wrogami.

Rola Booksa to najbardziej poruszająca kreacja w długiej i owocnej karierze aktora. Można narzekać na zbyt
wolną akcję filmu, na mało ciekawych wydarzeń, ale to nie o tym jest ten film. To wielkie pożegnanie chorującego
na nowotwór Wayne'a z kinem. Chyba żaden aktor nie pożegnał się z zawodem z taką klasą.



John Wayne, James Stewart, Lauren Bacall



The Shootist (1976)-alE13.mkv
Format : Matroska
Format version : Version 4 / Version 2
File size : 8.01 GiB
Duration : 1 h 38 min
Overall bit rate : 11.6 Mb/s
Movie name : The Shootist (1976)-alE13
Encoded date : UTC 2018-04-17 09:02:28
Writing application : mkvmerge v8.1.0 ('Psychedelic Postcard') 64bit
Writing library : libebml v1.3.1 + libmatroska v1.4.2
Cover : Yes
Attachments : Cover.jpg

Video
ID : 1
Format : AVC
Format/INFO : Advanced Video Codec
Format profile : High@L4.1
Format settings, CABAC : Yes
Format settings, ReFrames : 2 frames
Codec ID : V_MPEG4/ISO/AVC
Duration : 1 h 38 min
Bit rate : 9 552 kb/s
Width : 1 920 pixels
Height : 1 064 pixels
Display aspect ratio : 16:9
Frame rate mode : Constant
Frame rate : 23.976 (24000/1001) FPS
Color space : YUV
Chroma subsampling : 4:2:0
Bit depth : 8 bits
Scan type : Progressive
Bits/(Pixel*Frame) : 0.195
Stream size : 6.65 GiB (83%)
Title : The Shootist (1976)-alE13
Writing library : x264 core 142
Default : Yes
Forced : No
Color range : Limited
Color primaries : BT.709
Transfer characteristics : BT.709
Matrix coefficients : BT.709

Audio #1
ID : 2
Format : AC-3
Format/INFO : Audio Coding 3
Mode extension : CM (complete main)
Format settings, Endianness : Big
Codec ID : A_AC3
Duration : 1 h 38 min
Bit rate mode : Constant
Bit rate : 192 kb/s
Channel(s) : 2 channels
Channel positions : Front: L R
Sampling rate : 48.0 kHz
Frame rate : 31.250 FPS (1536 spf)
Compression mode : Lossy
Stream size : 136 MiB (2%)
Title : The Shootist (1976)-alE13_AC3
Language : English
Default : No
Forced : No

Audio #2
ID : 3
Format : AC-3
Format/INFO : Audio Coding 3
Mode extension : CM (complete main)
Format settings, Endianness : Big
Codec ID : A_AC3
Duration : 1 h 38 min
Bit rate mode : Constant
Bit rate : 256 kb/s
Channel(s) : 2 channels
Channel positions : Front: L R
Sampling rate : 48.0 kHz
Frame rate : 31.250 FPS (1536 spf)
Compression mode : Lossy
Delay relative to video : 800 ms
Stream size : 181 MiB (2%)
Title : The Shootist (1976)-alE13_AC3
Language : Polish
Default : Yes
Forced : No

Audio #3
ID : 4
Format : DTS
Format/INFO : Digital Theater Systems
Mode : 16
Format settings, Endianness : Big
Codec ID : A_DTS
Duration : 1 h 38 min
Bit rate mode : Constant
Bit rate : 1 509 kb/s
Channel(s) : 2 channels
Channel positions : Front: L R
Sampling rate : 48.0 kHz
Frame rate : 93.750 FPS (512 spf)
Bit depth : 16 bits
Compression mode : Lossy
Stream size : 1.04 GiB (13%)
Title : The Shootist (1976)-alE13_DTS
Language : English
Default : No
Forced : No

Text #1
ID : 5
Format : UTF-8
Codec ID : S_TEXT/UTF8
Codec ID/INFO : UTF-8 Plain Text
Duration : 1 h 34 min
Bit rate : 53 b/s
Count of elements : 984
Stream size : 37.1 KiB (0%)
Title : The Shootist (1976)-alE13
Language : Polish
Default : No
Forced : No

Text #2
ID : 6
Format : UTF-8
Codec ID : S_TEXT/UTF8
Codec ID/INFO : UTF-8 Plain Text
Duration : 1 h 34 min
Bit rate : 58 b/s
Count of elements : 1535
Stream size : 40.1 KiB (0%)
Title : The Shootist (1976)-alE13
Language : English
Default : No
Forced : No

Menu
00:00:00.000 : :Chapter 01
00:12:04.557 : :Chapter 02
00:25:51.716 : :Chapter 03
00:38:12.331 : :Chapter 04
00:46:13.896 : :Chapter 05
01:04:44.714 : :Chapter 06
01:15:25.145 : :Chapter 07
01:21:53.617 : :Chapter 08

====================================================

PODOBNE TORRENTY
Rewolwerowiec John Wayne - The shootist 1976 [DVDRip.XviD-Nitro] [Napisy PL] Wyjęty spod prawa Josey Wales/The Outlaw Josey Wales (1976)[BDRip 1080p x264 by alE13 AC3/DTS] [Lektor i Napisy PL/ENG] [ENG] Pojedynek po latach/The Last Hard Men (1976)[BDRip 1080p x264 by alE13 AC3/DTS] [Lektor PL] [ENG] Od południa do trzeciej-From Noon Till Three (1976)[BDRip 1080p x264 by alE13 AC3] [Lektor PL/Subtitles ENG] [ENG] Zabity na śmierć/Murder by Death (1976)[TVHDRip 1080p x264 by alE13 AC3] [Lektor i Napisy PL/ENG] [ENG] Bliskie spotkania trzeciego stopnia/Close Encounters of the Third Kind (1977)-alE13[BDRip 1080p x264 by alE13 AAC/AC3/DTS] [Lektor i Napisy PL/ENG] [ENG]
Szczegóły torrenta
TRACKER
Tracker Podstawowy: http://tracker.torrentyorg.pl/announce

Multitrackery:

http://tracker.torrentyorg.pl/announce
udp://p4p.arenabg.ch:1337/announce
udp://tracker.coppersurfer.tk:6969/announce
udp://tracker.leechers-paradise.org:6969/announce
udp://inferno.demonoid.pw:3391/announce
udp://tracker.opentrackr.org:1337/announce
udp://tracker.ilibr.org:80/announce
http://tracker.devil-torrents.pl/announce

UAKTUALNIENIE
28/07/2019 12:32:07 (Jeśeli nie widac seeda kliknij na [uaktualnij] by odswieżyć statystyki).
[Lub sprawdź programem do pobierania torrentów, ponieważ niektóre trackery nie wyświetlają statystyk]
14 pliki
 
KOMENTARZE


Brak komentarzy...

DODAJ KOMENTARZ

Zaloguj się aby dodawać komentarze !!!



Wstecz








WRÓĆ NA GÓRĘ