FileTracker.PL - Darmowe polskie torrenty

Witaj drogi Towarzyszu!, jeżeli widzisz ten dymek to znaczy że nie jesteś jeszcze zarejestrowany/zalogowany. Kliknij by się zarejestrować . Rejestracja zajmie mniej niż 30 sekund, a dzięki niej zyskasz możliwość pobierania, komentowania oraz dodawania torrentów !
User:  Hasło:     






Kategorie


Najczęściej pobierane w Kwietniu


Detale Torrenta


Jumanji: Przygoda w Dzungli - Jumanji: Welcome to the Jungle *2017* [1080p.3D.BluRay.Half-OU.x264.TrueHD.7.1.Atmos-FGT] [MULTI] [Lektor & Napisy PL]

S: 0L: 0P: 104
Dodał: Wolverine Tracker:
Kondycja:Dodane:2018-04-06 21:20:37
Kategoria:Filmy 3D / SBS  »  PrzygodoweRozmiar:25.67 GB
Język:Lektor PL  Lektor PL------------------
Obserwuj:OBSERWUJ TORRENTAStaty:UAKTUALNIJ TRACKER
Download: Pobierz TorrentRaport:RAPORTUJ TORRENTA


Produkcja: USA
Gatunek: Fantasy, Przygodowy
Premiera: 29 grudnia 2017 (Polska), 5 grudnia 2017 (świat)
Reżyseria: Jake Kasdan
Scenariusz: Scott Rosenberg, Chris McKenna



Kiedy dzieciaki odkrywają starą konsolę gier wideo z grą "Jumanji", o której nigdy dotąd nie słyszały, natychmiast przenoszą się w świat niebezpiecznej dżungli. To właśnie w niej dzieje się akcja gry, a one stają się awatarami postaci, które wybrały: zapalony gracz Spencer staje się odważnym łowcą przygód (Dwayne Johnson), fan piłki Fridge zamienia się (według własnych słów) w Einsteina (Kevin Hart), Bethany – popularna dziewczyna z sąsiedztwa – staje się profesorem w średnim wieku (Jack Black), natomiast niepozorna Martha przybiera postać nieustraszonej wojowniczki (Karen Gillan). Wkrótce odkrywają, że w Jumanji chodzi nie tylko o grę, ale przede wszystkim o przetrwanie. Aby wygrać i powrócić do realnego świata, będą musieli wyruszyć w najbardziej niebezpieczną przygodę życia, odkrywając prawdę o sobie, albo pozostać w świecie gry na zawsze…



★ Dwayne Johnson .... Spencer
★ Kevin Hart .... Fridge
★ Jack Black .... Bethany
★ Karen Gillan .... Martha
★ Rhys Darby .... Nigel
★ Bobby Cannavale .... Van Pelt
★ Nick Jonas .... Alex
★ Alex Wolff .... Młody Spencer



ideo
ID : 1
Format : AVC
Format/INFO : Advanced Video Codec
Format profile : High@L4.1
Format settings : CABAC / 3 Ref Frames
Format settings, CABAC : Yes
Format settings, ReFrames : 3 frames
Codec ID : V_MPEG4/ISO/AVC
Duration : 1 h 59 min
Bit rate : 16.0 Mb/s
Width : 1 920 pixels
Height : 1 080 pixels
Display aspect ratio : 16:9
Frame rate mode : Constant
Frame rate : 23.976 (24000/1001) FPS
Color space : YUV
Chroma subsampling : 4:2:0
Bit depth : 8 bits
Scan type : Progressive
Bits/(Pixel*Frame) : 0.322
Stream size : 13.2 GiB (51%)
Title : Jumanji.Welcome.to.the.Jungle.2017.1080p.3D.BluRay.Half-OU.x264.TrueHD.7.1.Atmos-FGT
Writing library : x264 core 148
Encoding settings : cabac=1 / ref=3 / deblock=1:-1:-1 / analyse=0x3:0 / me=hex / subme=5 / psy=1 / psy_rd=1.00:0.00 / mixed_ref=0 / me_range=16 / chroma_me=1 / trellis=1 / 8x8dct=1 / cqm=0 / deadzone=21,11 / fast_pskip=0 / chroma_qp_offset=0 / threads=24 / lookahead_threads=6 / sliced_threads=0 / nr=0 / decimate=1 / interlaced=0 / bluray_compat=0 / constrained_intra=0 / bframes=2 / b_pyramid=0 / b_adapt=1 / b_bias=0 / direct=1 / weightb=0 / open_gop=0 / weightp=0 / keyint=24 / keyint_min=2 / scenecut=40 / intra_refresh=0 / rc=abr / mbtree=0 / bitrate=16000 / ratetol=1.0 / qcomp=0.60 / qpmin=0 / qpmax=69 / qpstep=4 / ip_ratio=1.40 / pb_ratio=1.30 / aq=1:1.00
Default : Yes
Forced : No
Color range : Limited
Color primaries : BT.709
Transfer characteristics : BT.709
Matrix coefficients : BT.709

Audio #1
ID : 2
Format : TrueHD
Format profile : TrueHD+Atmos / TrueHD
Codec ID : A_TRUEHD
Duration : 1 h 59 min
Bit rate mode : Variable
Bit rate : 4 837 kb/s
Maximum bit rate : 8 469 kb/s
Channel(s) : Object Based / 8 channels
Channel positions : Object Based / Front: L C R, Side: L R, Back: L R, LFE
Sampling rate : / 48.0 kHz
Frame rate : 1 200.000 FPS (40 SPF)
Compression mode : Lossless
Stream size : 4.02 GiB (16%)
Title : Jumanji.Welcome.to.the.Jungle.2017.1080p.3D.BluRay.Half-OU.x264.TrueHD.7.1.Atmos-FGT
Language : English
Default : Yes
Forced : No

Audio #2
ID : 3
Format : AC-3
Format/INFO : Audio Coding 3
Codec ID : A_AC3
Duration : 1 h 59 min
Bit rate mode : Constant
Bit rate : 640 kb/s
Channel(s) : 6 channels
Channel positions : Front: L C R, Side: L R, LFE
Sampling rate : 48.0 kHz
Frame rate : 31.250 FPS (1536 SPF)
Bit depth : 16 bits
Compression mode : Lossy
Stream size : 545 MiB (2%)
Title : Jumanji.Welcome.to.the.Jungle.2017.1080p.3D.BluRay.Half-OU.x264.TrueHD.7.1.Atmos-FGT
Language : English
Service kind : Complete Main
Default : No
Forced : No

Audio #3
ID : 4
Format : AC-3
Format/INFO : Audio Coding 3
Codec ID : A_AC3
Duration : 1 h 59 min
Bit rate mode : Constant
Bit rate : 640 kb/s
Channel(s) : 6 channels
Channel positions : Front: L C R, Side: L R, LFE
Sampling rate : 48.0 kHz
Frame rate : 31.250 FPS (1536 SPF)
Bit depth : 16 bits
Compression mode : Lossy
Stream size : 545 MiB (2%)
Title : Jumanji.Welcome.to.the.Jungle.2017.1080p.3D.BluRay.Half-OU.x264.TrueHD.7.1.Atmos-FGT
Language : English
Service kind : Complete Main
Default : No
Forced : No

Audio #4
ID : 5
Format : AC-3
Format/INFO : Audio Coding 3
Codec ID : A_AC3
Duration : 1 h 59 min
Bit rate mode : Constant
Bit rate : 640 kb/s
Channel(s) : 6 channels
Channel positions : Front: L C R, Side: L R, LFE
Sampling rate : 48.0 kHz
Frame rate : 31.250 FPS (1536 SPF)
Bit depth : 16 bits
Compression mode : Lossy
Stream size : 545 MiB (2%)
Title : Jumanji.Welcome.to.the.Jungle.2017.1080p.3D.BluRay.Half-OU.x264.TrueHD.7.1.Atmos-FGT
Language : Czech
Service kind : Complete Main
Default : No
Forced : No

Audio #5
ID : 6
Format : AC-3
Format/INFO : Audio Coding 3
Codec ID : A_AC3
Duration : 1 h 59 min
Bit rate mode : Constant
Bit rate : 640 kb/s
Channel(s) : 6 channels
Channel positions : Front: L C R, Side: L R, LFE
Sampling rate : 48.0 kHz
Frame rate : 31.250 FPS (1536 SPF)
Bit depth : 16 bits
Compression mode : Lossy
Stream size : 545 MiB (2%)
Title : Jumanji.Welcome.to.the.Jungle.2017.1080p.3D.BluRay.Half-OU.x264.TrueHD.7.1.Atmos-FGT
Language : Hungarian
Service kind : Complete Main
Default : No
Forced : No

Audio #6
ID : 7
Format : AC-3
Format/INFO : Audio Coding 3
Codec ID : A_AC3
Duration : 1 h 59 min
Bit rate mode : Constant
Bit rate : 640 kb/s
Channel(s) : 6 channels
Channel positions : Front: L C R, Side: L R, LFE
Sampling rate : 48.0 kHz
Frame rate : 31.250 FPS (1536 SPF)
Bit depth : 16 bits
Compression mode : Lossy
Stream size : 545 MiB (2%)
Title : Jumanji.Welcome.to.the.Jungle.2017.1080p.3D.BluRay.Half-OU.x264.TrueHD.7.1.Atmos-FGT
Language : Polish
Service kind : Complete Main
Default : No
Forced : No

Audio #7
ID : 8
Format : DTS
Format/INFO : Digital Theater Systems
Format profile : MA / Core
Codec ID : A_DTS
Duration : 1 h 59 min
Bit rate mode : Variable / Constant
Bit rate : 2 286 kb/s / 1 509 kb/s
Channel(s) : 6 channels
Channel positions : Front: L C R, Side: L R, LFE
Sampling rate : 48.0 kHz
Frame rate : 93.750 FPS (512 SPF)
Bit depth : 16 bits
Compression mode : Lossless / Lossy
Stream size : 1.90 GiB (7%)
Title : Jumanji.Welcome.to.the.Jungle.2017.1080p.3D.BluRay.Half-OU.x264.TrueHD.7.1.Atmos-FGT
Language : Portuguese
Default : No
Forced : No

Audio #8
ID : 9
Format : AC-3
Format/INFO : Audio Coding 3
Codec ID : A_AC3
Duration : 1 h 59 min
Bit rate mode : Constant
Bit rate : 640 kb/s
Channel(s) : 6 channels
Channel positions : Front: L C R, Side: L R, LFE
Sampling rate : 48.0 kHz
Frame rate : 31.250 FPS (1536 SPF)
Bit depth : 16 bits
Compression mode : Lossy
Stream size : 545 MiB (2%)
Title : Jumanji.Welcome.to.the.Jungle.2017.1080p.3D.BluRay.Half-OU.x264.TrueHD.7.1.Atmos-FGT
Language : Spanish
Service kind : Complete Main
Default : No
Forced : No

Audio #9
ID : 10
Format : AC-3
Format/INFO : Audio Coding 3
Codec ID : A_AC3
Duration : 1 h 59 min
Bit rate mode : Constant
Bit rate : 640 kb/s
Channel(s) : 6 channels
Channel positions : Front: L C R, Side: L R, LFE
Sampling rate : 48.0 kHz
Frame rate : 31.250 FPS (1536 SPF)
Bit depth : 16 bits
Compression mode : Lossy
Stream size : 545 MiB (2%)
Title : Jumanji.Welcome.to.the.Jungle.2017.1080p.3D.BluRay.Half-OU.x264.TrueHD.7.1.Atmos-FGT
Language : Thai
Service kind : Complete Main
Default : No
Forced : No

Audio #10
ID : 11
Format : DTS
Format/INFO : Digital Theater Systems
Codec ID : A_DTS
Duration : 1 h 59 min
Bit rate mode : Constant
Bit rate : 1 509 kb/s
Channel(s) : 6 channels
Channel positions : Front: L C R, Side: L R, LFE
Sampling rate : 48.0 kHz
Frame rate : 93.750 FPS (512 SPF)
Bit depth : 16 bits
Compression mode : Lossy
Stream size : 1.25 GiB (5%)
Title : Jumanji.Welcome.to.the.Jungle.2017.1080p.3D.BluRay.Half-OU.x264.TrueHD.7.1.Atmos-FGT
Language : English
Default : No
Forced : No

Audio #11
ID : 12
Format : DTS
Format/INFO : Digital Theater Systems
Codec ID : A_DTS
Duration : 1 h 59 min
Bit rate mode : Constant
Bit rate : 1 509 kb/s
Channel(s) : 6 channels
Channel positions : Front: L C R, Side: L R, LFE
Sampling rate : 48.0 kHz
Frame rate : 93.750 FPS (512 SPF)
Bit depth : 16 bits
Compression mode : Lossy
Stream size : 1.25 GiB (5%)
Title : Jumanji.Welcome.to.the.Jungle.2017.1080p.3D.BluRay.Half-OU.x264.TrueHD.7.1.Atmos-FGT
Language : Portuguese
Default : No
Forced : No

Text #1
ID : 13
Format : PGS
Muxing mode : zlib
Codec ID : S_HDMV/PGS
Codec ID/INFO : Picture based subtitle format used on BDs/HD-DVDs
Duration : 1 h 48 min
Bit rate : 71.9 kb/s
Count of elements : 3832
Stream size : 56.0 MiB (0%)
Title : English-PGS
Language : English
Default : Yes
Forced : No

Text #2
ID : 14
Format : PGS
Muxing mode : zlib
Codec ID : S_HDMV/PGS
Codec ID/INFO : Picture based subtitle format used on BDs/HD-DVDs
Duration : 1 h 58 min
Bit rate : 35.1 kb/s
Count of elements : 3888
Stream size : 29.7 MiB (0%)
Title : Arabic-PGS
Language : Arabic
Default : No
Forced : No

Text #3
ID : 15
Format : PGS
Muxing mode : zlib
Codec ID : S_HDMV/PGS
Codec ID/INFO : Picture based subtitle format used on BDs/HD-DVDs
Duration : 1 h 57 min
Bit rate : 60.6 kb/s
Count of elements : 3888
Stream size : 51.1 MiB (0%)
Title : Bulgarian-PGS
Language : Bulgarian
Default : No
Forced : No

Text #4
ID : 16
Format : PGS
Muxing mode : zlib
Codec ID : S_HDMV/PGS
Codec ID/INFO : Picture based subtitle format used on BDs/HD-DVDs
Duration : 1 h 58 min
Bit rate : 51.5 kb/s
Count of elements : 3816
Stream size : 43.5 MiB (0%)
Title : Chinese-PGS
Language : Chinese
Default : No
Forced : No

Text #5
ID : 17
Format : PGS
Muxing mode : zlib
Codec ID : S_HDMV/PGS
Codec ID/INFO : Picture based subtitle format used on BDs/HD-DVDs
Duration : 1 h 58 min
Bit rate : 50.2 kb/s
Count of elements : 3772
Stream size : 42.4 MiB (0%)
Title : Chinese-PGS
Language : Chinese
Default : No
Forced : No

Text #6
ID : 18
Format : PGS
Muxing mode : zlib
Codec ID : S_HDMV/PGS
Codec ID/INFO : Picture based subtitle format used on BDs/HD-DVDs
Duration : 1 h 58 min
Bit rate : 51.8 kb/s
Count of elements : 3748
Stream size : 43.8 MiB (0%)
Title : Croatian-PGS
Language : Croatian
Default : No
Forced : No

Text #7
ID : 19
Format : PGS
Muxing mode : zl

====================================================

PODOBNE TORRENTY
Jumanji: Przygoda w Dzungli - Jumanji: Welcome to the Jungle *2017* [1080p.3D.BluRay.Half-SBS.x264.TrueHD.7.1.Atmos-FGT] [MULTI] [Dubbing & Napisy PL] Jumanji: Przygoda w Dzungli - Jumanji: Welcome to the Jungle *2017* [1080p.3D.BluRay.Half-SBS.x264.DTS-HD.MA.7.1-FGT] [MULTI] [Lektor & Napisy PL] Jumanji: Przygoda w Dzungli / Jumanji: Welcome to the Jungle *2017* [MULTi]  [2160p] [UHD] [BluRay] [TrueHD.7.1.DTS-HD.AC3] [HEVC 10BIT.HDR] [Dubbing & Napisy PL] Jumanji: Przygoda w Dzungli / Jumanji: Welcome to the Jungle *2017* [3D] [1080p] [BluRay] [Half- SBS] [x264-p78] [AC3.DD 5.1] [Dubbing & Napisy PL/ENG] [ENG] Jumanji: Przygoda w Dzungli / Jumanji: Welcome to the Jungle *2017*  [1080p] [2D/3D BluRay]  [x264.DTS-HD.MA.5.1.AC3.DD 5.1-FGT] [MULTI] [Dubbing & Napisy PL] Jumanji: Przygoda w dzungli / Jumanji: Welcome to the Jungle (2017) [720p] [BluRay] [x264-SPARKS] [Napisy PL]
Szczegóły torrenta
TRACKER
Tracker Podstawowy: udp://9.rarbg.me:2710/announce

Multitrackery:

udp://9.rarbg.me:2710/announce
udp://9.rarbg.to:2710/announce
http://tracker.trackerfix.com:80/announce

UAKTUALNIENIE
21/12/2019 10:46:16 (Jeśeli nie widac seeda kliknij na [uaktualnij] by odswieżyć statystyki).
[Lub sprawdź programem do pobierania torrentów, ponieważ niektóre trackery nie wyświetlają statystyk]
2 pliki
 
KOMENTARZE


Brak komentarzy...

DODAJ KOMENTARZ

Zaloguj się aby dodawać komentarze !!!



Wstecz








WRÓĆ NA GÓRĘ