FileTracker.PL - Darmowe polskie torrenty

Witaj drogi Towarzyszu!, jeżeli widzisz ten dymek to znaczy że nie jesteś jeszcze zarejestrowany/zalogowany. Kliknij by się zarejestrować . Rejestracja zajmie mniej niż 30 sekund, a dzięki niej zyskasz możliwość pobierania, komentowania oraz dodawania torrentów !
User:  Hasło:     



Kategorie


Detale Torrenta


Malcolm X *1992* [720p] [BluRay] [H264] [AAC] [RARBG] [ENG]

S: 0L: 0P: 16
Dodał: kempes84 Tracker:
Kondycja:Dodane:2018-03-22 10:36:41
Kategoria:Filmy X264 / H264  »  BiograficzneRozmiar:2.44 GB
Język:Wersja ENG  Wersja ENG------------------
Obserwuj:OBSERWUJ TORRENTAStaty:UAKTUALNIJ TRACKER
Download: Pobierz TorrentRaport:RAPORTUJ TORRENTA


Produkcja: Japonia, USA
Gatunek: Biograficzny, Dramat historyczny
Premiera: 18 listopada 1992 (świat)
Reżyseria: Spike Lee
Scenariusz: Spike Lee, Arnold Perl



Biograficzna opowieść o Malcolmie X, działaczu murzyńskim w USA. Gdy był mały jego ojciec został zabity przez Ku-Klux-Klan. On sam zaś wyrósł na gangstera. W więzieniu jednak odkrył Islam, na który sie nawrócił. Po wyjściu z więzienia zaczął nauczać i działać dla czarnej społecznośći, co nie podobała się białym rasistom ...



★ Denzel Washington .... Malcolm X
★ Angela Bassett .... Dr Betty Shabaz
★ Albert Hall .... Baines
★ Al Freeman Jr. .... Elijah Muhammad
★ Delroy Lindo .... West India Archie
★ Theresa Randle .... Laura
★ Kate Vernon .... Sophia
★ Lonette McKee .... Louise Little



Video
ID : 1
Format : AVC
Format/INFO : Advanced Video Codec
Format profile : [email protected]
Format settings : CABAC / 4 Ref Frames
Format settings, CABAC : Yes
Format settings, ReFrames : 4 frames
Codec ID : avc1
Codec ID/INFO : Advanced Video Coding
Duration : 3 h 21 min
Bit rate : 1 500 kb/s
Width : 1 280 pixels
Height : 720 pixels
Display aspect ratio : 16:9
Frame rate mode : Constant
Frame rate : 23.976 (23976/1000) FPS
Color space : YUV
Chroma subsampling : 4:2:0
Bit depth : 8 bits
Scan type : Progressive
Bits/(Pixel*Frame) : 0.068
Stream size : 2.11 GiB (87%)
Writing library : x264 core 152 r2851M ba24899
Encoding settings : cabac=1 / ref=4 / deblock=1:-1:-1 / analyse=0x3:0x113 / me=umh / subme=9 / psy=1 / psy_rd=1.00:0.15 / mixed_ref=1 / me_range=24 / chroma_me=1 / trellis=2 / 8x8dct=1 / cqm=0 / deadzone=21,11 / fast_pskip=1 / chroma_qp_offset=-3 / threads=32 / lookahead_threads=4 / sliced_threads=0 / nr=0 / decimate=1 / interlaced=0 / bluray_compat=0 / constrained_intra=0 / bframes=3 / b_pyramid=2 / b_adapt=2 / b_bias=0 / direct=3 / weightb=1 / open_gop=0 / weightp=2 / keyint=250 / keyint_min=25 / scenecut=40 / intra_refresh=0 / rc_lookahead=50 / rc=2pass / mbtree=1 / bitrate=1500 / ratetol=1.0 / qcomp=0.60 / qpmin=0 / qpmax=69 / qpstep=4 / cplxblur=20.0 / qblur=0.5 / vbv_maxrate=31250 / vbv_bufsize=31250 / nal_hrd=none / filler=0 / ip_ratio=1.40 / aq=3:1.00
Encoded date : UTC 2018-03-22 04:03:17
Tagged date : UTC 2018-03-22 04:03:17

Audio
ID : 2
Format : AAC
Format/INFO : Advanced Audio Codec
Format profile : LC
Codec ID : mp4a-40-2
Duration : 3 h 21 min
Bit rate mode : Constant
Bit rate : 224 kb/s
Channel(s) : 2 channels
Channel(s)_Original : 6 channels
Channel positions : Front: L C R, Side: L R, LFE
Sampling rate : 48.0 kHz
Frame rate : 46.875 FPS (1024 SPF)
Compression mode : Lossy
Stream size : 323 MiB (13%)
Language : English
Default : Yes
Alternate group : 1
Encoded date : UTC 2018-03-22 04:03:17
Tagged date : UTC 2018-03-22 04:03:17



https://cdn.imagecurl.com/images/62286513985436181956.png
https://cdn.imagecurl.com/images/18554409303161757450.png
https://cdn.imagecurl.com/images/40037738480527287094.png



====================================================

PODOBNE TORRENTY
Baraka (1992) [1080p] [BluRay.H264.AAC-RARBG] [MP4] Venom *2018* [720p] [BluRay] [H264] [AAC] [RARBG] [ENG] Day of the Dead 2 Contagium *2005* [720p] [BluRay] [H264] [AAC] [RARBG] [ENG] 247°F - 247 Degrees Fahrenheit *2011* [720p.BluRay.H264.AAC-RARBG] [Napisy PL] Noc w muzeum: Tajemnica grobowca - Night at the Museum: Secret of the Tomb *2014* [720p] [BluRay] [H264.AAC-RARBG] [ENG] Przyciąganie 2 - Vtorzhenie - Attraction 2 Invasion *2020* [720p.BluRay.H264.AAC-RARBG] [Dubbing ENG / Napisy PL] [azjatycki]
Szczegóły torrenta
TRACKER
Tracker Podstawowy: http://tracker.trackerfix.com:80/announce

Multitrackery:

http://tracker.trackerfix.com:80/announce
udp://9.rarbg.me:2710/announce
udp://9.rarbg.to:2710/announce

UAKTUALNIENIE
22/03/2018 10:37:19 (Jeśeli nie widac seeda kliknij na [uaktualnij] by odswieżyć statystyki).
[Lub sprawdź programem do pobierania torrentów, ponieważ niektóre trackery nie wyświetlają statystyk]
3 pliki
 
KOMENTARZE


Brak komentarzy...

DODAJ KOMENTARZ

Zaloguj się aby dodawać komentarze !!!



Wstecz








WRÓĆ NA GÓRĘ