FileTracker.PL - Darmowe polskie torrenty

Witaj drogi Towarzyszu!, jeżeli widzisz ten dymek to znaczy że nie jesteś jeszcze zarejestrowany/zalogowany. Kliknij by się zarejestrować . Rejestracja zajmie mniej niż 30 sekund, a dzięki niej zyskasz możliwość pobierania, komentowania oraz dodawania torrentów !
User:  Hasło:     



Kategorie


Detale Torrenta


Śmierć w Tombstone II-Dead Again in Tombstone (2017)[BRRip 1080p x264 by alE13 AC3/DTS] [Napisy PL/ENG] [ENG]

S: 0L: 0P: 31
Dodał: Wolverine Tracker:
Kondycja:Dodane:2018-01-27 18:36:43
Kategoria:Filmy X264 / H264  »  WesternRozmiar:9.01 GB
Język:Napisy PL  Napisy PL------------------
Obserwuj:OBSERWUJ TORRENTAStaty:UAKTUALNIJ TRACKER
Download: Pobierz TorrentRaport:RAPORTUJ TORRENTA
...( INFO )...



https://i.imgur.com/8yb1UXX.jpg

https://www.imdb.com/title/tt5794440/
https://www.filmweb.pl/film/Dead+Again+in+Tombstone-2017-777241

Audio DTS w osobnym pliku.
Plik zawiera Sample.

reżyseria: Roel Reiné
scenariusz: Roel Reiné, Ethan Wiley
gatunek: Horror,Western
produkcja: USA
premiera: 11-09-2017
czas: 01:39:08

...( Opis )...

Guerrero returns from the dead once more to protect a stolen relic from getting into the hands of a gang of
soldiers, which will ultimately cause hell upon earth.

Guerrero powraca z martwych, aby chronić skradzioną relikwię przed dostaniem się w nieodpowiednie ręce...

...( OBSADA )...

Danny Trejo, Jake Busey, Elysia Rotaru

...( DANE TECH )...


audio:

Dead Again in Tombstone (2017)-alE13_DTS.mka

Hash: B375FC0F055936A5
Format: Matroska
Czas: 01:39:08.363
Rozmiar: 1.05 GiB (1126684798)

Audio (0):
Kodek: (DTS) DTS
Format: DTS
Kanały: 6 channels
BitRate: 1 509 kb/s
Tytuł: Dead Again in Tombstone (2017)-alE13_DTS
Język: English


Napisy (0):
Kodek: (S_VOBSUB) VobSub
Format: VobSub
Język: English (Dead Again in Tombstone (2017)-alE13_VOB)

video:

Dead Again in Tombstone (2017)-alE13.mkv
Format : Matroska
Format version : Version 4 / Version 2
File size : 7.92 GiB
Duration : 1 h 39 min
Overall bit rate : 11.4 Mb/s
Movie name : Dead Again in Tombstone (2017)-alE13
Encoded date : UTC 2017-10-24 06:10:42
Writing application : mkvmerge v8.1.0 ('Psychedelic Postcard') 64bit
Writing library : libebml v1.3.1 + libmatroska v1.4.2
Cover : Yes
Attachments : Cover.jpg

Video
ID : 1
Format : AVC
Format/INFO : Advanced Video Codec
Format profile : High@L4.1
Format settings, CABAC : Yes
Format settings, RefFrames : 2 frames
Codec ID : V_MPEG4/ISO/AVC
Duration : 1 h 39 min
Bit rate : 10.8 Mb/s
Width : 1 920 pixels
Height : 1 080 pixels
Display aspect ratio : 16:9
Frame rate mode : Constant
Frame rate : 23.976 (24000/1001) FPS
Color space : YUV
Chroma subsampling : 4:2:0
Bit depth : 8 bits
Scan type : Progressive
Bits/(Pixel*Frame) : 0.217
Stream size : 7.47 GiB (94%)
Title : Dead Again in Tombstone (2017)-alE13
Writing library : x264 core 142
Default : Yes
Forced : No
Color range : Limited
Color primaries : BT.709
Transfer characteristics : BT.709
Matrix coefficients : BT.709

Audio
ID : 2
Format : AC-3
Format/INFO : Audio Coding 3
Format settings, Endianness : Big
Codec ID : A_AC3
Duration : 1 h 39 min
Bit rate mode : Constant
Bit rate : 640 kb/s
Channel(s) : 6 channels
Channel positions : Front: L C R, Side: L R, LFE
Sampling rate : 48.0 kHz
Frame rate : 31.250 FPS (1536 SPF)
Bit depth : 16 bits
Compression mode : Lossy
Stream size : 454 MiB (6%)
Title : Dead Again in Tombstone (2017)-alE13_AC3
Language : English
Service kind : Complete Main
Default : No
Forced : No

Text #1
ID : 3
Format : UTF-8
Codec ID : S_TEXT/UTF8
Codec ID/INFO : UTF-8 Plain Text
Duration : 1 h 34 min
Bit rate : 31 b/s
Count of elements : 870
Stream size : 21.7 KiB (0%)
Title : Dead Again in Tombstone (2017)-alE13_srt
Language : Polish
Default : Yes
Forced : No

Text #2
ID : 4
Format : UTF-8
Codec ID : S_TEXT/UTF8
Codec ID/INFO : UTF-8 Plain Text
Duration : 1 h 35 min
Bit rate : 39 b/s
Count of elements : 1035
Stream size : 27.4 KiB (0%)
Title : Dead Again in Tombstone (2017)-alE13_srt
Language : English
Default : No
Forced : No

Menu
00:00:00.000 : en:00:00:00.000
00:06:41.151 : en:00:06:41.151
00:12:29.290 : en:00:12:29.290
00:16:55.264 : en:00:16:55.264
00:23:28.365 : en:00:23:28.365
00:28:59.655 : en:00:28:59.655
00:33:37.098 : en:00:33:37.098
00:36:55.004 : en:00:36:55.004
00:42:44.771 : en:00:42:44.771
00:47:29.847 : en:00:47:29.847
00:52:53.796 : en:00:52:53.796
00:56:12.077 : en:00:56:12.077
01:01:01.449 : en:01:01:01.449
01:04:17.729 : en:01:04:17.729
01:09:17.403 : en:01:09:17.403
01:12:36.310 : en:01:12:36.310
01:18:47.180 : en:01:18:47.181
01:23:31.756 : en:01:23:31.757
01:30:14.033 : en:01:30:14.034
01:36:06.344 : en:01:36:06.344

====================================================

PODOBNE TORRENTY
Śmierć w Tombstone - Dead In Tombstone *2013* [DVDRip.x264-Złośnicaa] [Lektor PL] Śmierć w Tombstone - Dead In Tombstone (2013) [720p] [HDTV] [XViD] [AC3-H1] [Lektor PL] Śmierć w Tombstone - Dead in Tombstone *2013* [DVDRip] [XviD-NN] [Lektor PL] Śmierć w Tombstone - Dead in Tombstone (2013) [480p] [BDRip] [XviD] [AC3-ELiTE] [Lektor PL] Dead Again in Tombstone (2017) [720p] [BRRip] [XviD] [AC-3] [Napisy PL] [H1] Tombstone (1993)[BDRip 1080p x264 by alE13 AC3/DTS] [Lektor PL/Multi Subtitles] [ENG]
Szczegóły torrenta
TRACKER
Tracker Podstawowy: udp://tracker.leechers-paradise.org:6969/announce

Multitrackery:

udp://tracker.leechers-paradise.org:6969/announce
http://tracker.torrentyorg.pl/announce
udp://tracker.opentrackr.org:1337/announce
udp://tracker.leechers-paradise.org:6969/announce
udp://tracker.ilibr.org:80/announce
udp://tracker.coppersurfer.tk:6969/announce
udp://p4p.arenabg.ch:1337/announce
udp://inferno.demonoid.pw:3391/announce

UAKTUALNIENIE
07/11/2020 00:23:41 (Jeśeli nie widac seeda kliknij na [uaktualnij] by odswieżyć statystyki).
[Lub sprawdź programem do pobierania torrentów, ponieważ niektóre trackery nie wyświetlają statystyk]
16 pliki
 
KOMENTARZE


Brak komentarzy...

DODAJ KOMENTARZ

Zaloguj się aby dodawać komentarze !!!



Wstecz








WRÓĆ NA GÓRĘ