FileTracker.PL - Darmowe polskie torrenty

Witaj drogi Towarzyszu!, jeżeli widzisz ten dymek to znaczy że nie jesteś jeszcze zarejestrowany/zalogowany. Kliknij by się zarejestrować . Rejestracja zajmie mniej niż 30 sekund, a dzięki niej zyskasz możliwość pobierania, komentowania oraz dodawania torrentów !
User:  Hasło:     



Kategorie


Detale Torrenta


Homeland S06E01 - Fair Game [720p.WEB-DL.H.264.AC3] [Lektor PL]

S: 3L: 2P: 155
Dodał: Lukarusi Tracker:
Kondycja:Dodane:2017-02-15 08:46:45
Kategoria:Seriale  »  Horror / ThrillerRozmiar:1.53 GB
Język:Lektor PL  Lektor PL------------------
Obserwuj:OBSERWUJ TORRENTAStaty:UAKTUALNIJ TRACKER
Download: Pobierz TorrentRaport:RAPORTUJ TORRENTA


produkcja: USA
gatunek: Thriller, Dramat
reżyseria: Keith Gordon, Lesli Linka Glatter
scenariusz: Alex Gansa, Howard Gordon, Gideon Raff, Ted Mann
zdjęcia: David Klein, Giorgio Scali
muzyka: Sean Callery
czas trwania odcinka: ok. 51 min.



Miejscem akcji są znowu Stany Zjednoczone, a konkretnie Nowy Jork. Co prawda jak na razie zarys fabularny jest dość oszczędny, ale główne założenia zostały jasno zaprezentowane i wszystko wskazuje na to, że w szóstym sezonie wielka polityka będzie odgrywać kluczową rolę. W odcinku wprowadzającym, poznajemy charyzmatyczną panią prezydent elekt, która już na wejściu staje się jednym z głównych rozgrywających, w skomplikowanej partii szachów między politykami, agencjami rządowymi i wojskiem.



Claire Danes - Carrie Mathison
Rupert Friend - Peter Quinn
Elizabeth Marvel - Elizabeth Keane
F. Murray Abraham - Dar Adal
Mandy Patinkin -Saul Berenson
Hill Harper - Rob Hemmis
Robert Knepper - Jamie McClendon
Dominic Fumusa - Ray Conlin
Patrick Sabongui - Reda Hashem



Format : Matroska
Format version : Version 4 / Version 2
File size : 1.53 GiB
Duration : 50mn 48s
Overall bit rate : 4 311 Kbps
Encoded date : UTC 2017-02-15 07:26:49

Video
ID : 1
Format : AVC
Format/INFO : Advanced Video Codec
Format profile : High@L3.1
Format settings, CABAC : No
Format settings, ReFrames : 2 frames
Codec ID : V_MPEG4/ISO/AVC
Duration : 50mn 48s
Bit rate : 4 001 Kbps
Width : 1 280 pixels
Height : 720 pixels
Display aspect ratio : 16:9
Frame rate mode : Constant
Frame rate : 23.976 fps
Color space : YUV
Chroma subsampling : 4:2:0
Bit depth : 8 bits
Scan type : Progressive
Bits/(Pixel*Frame) : 0.181
Stream size : 1.42 GiB (93%)
Color primaries : BT.709
Transfer characteristics : BT.709
Matrix coefficients : BT.709

Audio
ID : 2
Format : AC-3
Format/INFO : Audio Coding 3
Mode extension : CM (complete main)
Format settings, Endianness : Big
Codec ID : A_AC3
Duration : 50mn 48s
Bit rate mode : Constant
Bit rate : 224 Kbps
Channel(s) : 2 channels
Channel positions : Front: L R
Sampling rate : 48.0 KHz
Bit depth : 16 bits
Compression mode : Lossy
Stream size : 81.4 MiB (5%)
Language : Polish

====================================================

PODOBNE TORRENTY
Homeland S06E01 - Fair Game [720p.AMZN.WEBRip.x264.DD5.1] [Napisy PL] Homeland S06E01-02 [720p.WEB-DL.H.264.DD5.1] [Napisy PL] Homeland S06E01 *2017*[WEBRip] [XviD] [Lektor PL] Fair Game (2010) [720p] [BluRay] [x264-LTN] [Lektor PL] [Karibu] Gra o tron - Game of Thrones [S06E01] [720p] [HDTV] [x264-KiT] [Lektor PL] Homeland [S06E01] [480p.HDTV.XviD.AC3-AX2] [Napisy PL]
Szczegóły torrenta
TRACKER
Tracker Podstawowy: http://tracker.filetracker.pl:8089/announce

Multitrackery:

http://tracker.filetracker.pl:8089/announce
http://agusiq-torrents.pl:6969/announce
http://tracker.torrentyorg.pl/announce
udp://tracker.leechers-paradise.org:6969/announce
udp://9.rarbg.me:2710/announce
udp://9.rarbg.com:2710/announce
http://retracker.omsk.ru:2710/announce
udp://shadowshq.eddie4.nl:6969/announce
http://mgtracker.org:2710/announce
http://tracker.aletorrenty.pl:2710/announce
http://tracker.tfile.me/announce
udp://tracker.glotorrents.com:6969/announce
udp://eddie4.nl:6969/announce
udp://torrent.gresille.org:80/announce
udp://poloniumsurfer.tk:6969/announce
udp://tracker.pomf.se:80/announce
udp://sugoi.pomf.se:80/announce
udp://tracker.openbittorrent.com:80/announce
http://94.228.192.98/announce
http://tracker.trackerfix.com/announce
http://tracker.immortaltorrent.pl/announce
udp://10.rarbg.com/announce

UAKTUALNIENIE
30/07/2020 12:27:28 (Jeśeli nie widac seeda kliknij na [uaktualnij] by odswieżyć statystyki).
[Lub sprawdź programem do pobierania torrentów, ponieważ niektóre trackery nie wyświetlają statystyk]
1 file
 
KOMENTARZE


Brak komentarzy...

DODAJ KOMENTARZ

Zaloguj się aby dodawać komentarze !!!



Wstecz








WRÓĆ NA GÓRĘ