FileTracker.PL - Darmowe polskie torrenty

Witaj drogi Towarzyszu!, jeżeli widzisz ten dymek to znaczy że nie jesteś jeszcze zarejestrowany/zalogowany. Kliknij by się zarejestrować . Rejestracja zajmie mniej niż 30 sekund, a dzięki niej zyskasz możliwość pobierania, komentowania oraz dodawania torrentów !
User:  Hasło:     



Kategorie


Detale Torrenta


Zwyciężca - Race *2016* [DVDRip.x264-Złośnicaa] [Lektor PL]

S: 17L: 14P: 52
Dodał: Tracker:
Kondycja:Dodane:2017-02-10 11:55:24
Kategoria:Filmy X264 / H264  »  BiograficzneRozmiar:491.94 MB
Język:Lektor PL  Lektor PL------------------
Obserwuj:OBSERWUJ TORRENTAStaty:UAKTUALNIJ TRACKER
Download: Pobierz TorrentRaport:RAPORTUJ TORRENTA




produkcja: Francja, Kanada, Niemcy
premiera: 17 lutego 2016 - Świat
gatunek: Biograficzny, Sportowy
reżyseria: Stephen Hopkins
scenariusz: Joe Shrapnel, Anna Waterhouse



Jesse Owens to niezwykle utalentowany lekkoatleta, który dzięki własnej sile i wsparciu trenera wspiął się na szczyt i trafił do amerykańskiej reprezentacji olimpijskiej na igrzyska w Berlinie 1936 roku. Olimpiada ta w założeniu Hitlera miała być nazistowską manifestacją wyższości białej rasy. Ale to właśnie czarnoskóry Owens przeszedł do historii, zdobywając 4 złote medale. Dokonując tego niezwykłego czynu, wzbudził zachwyt niemieckiej publiczności, burząc propagandowe plany fuhrera.



Stephan James ... Jesse Owens
Jason Sudeikis ... Larry Snyder
Jeremy Irons ... Avery Brundage
Carice van Houten ... Leni Riefenstahl





Video
ID : 1
Format : AVC
Format/INFO : Advanced Video Codec
Format profile : [email protected]
Format settings, CABAC : Yes
Format settings, ReFrames : 4 frames
Codec ID : avc1
Codec ID/INFO : Advanced Video Coding
Duration : 2 h 14 min
Bit rate : 337 kb/s
Width : 640 pixels
Height : 272 pixels
Display aspect ratio : 2.35:1
Frame rate mode : Constant
Frame rate : 30.000 FPS
Color space : YUV
Chroma subsampling : 4:2:0
Bit depth : 8 bits
Scan type : Progressive
Bits/(Pixel*Frame) : 0.065
Stream size : 324 MiB (66%)
Writing library : x264 core 132=

Audio
ID : 2
Format : AAC
Format/INFO : Advanced Audio Codec
Format profile : LC
Codec ID : 40
Duration : 2 h 14 min
Duration_LastFrame : -1 ms
Bit rate mode : Variable
Bit rate : 165 kb/s
Maximum bit rate : 256 kb/s
Channel(s) : 2 channels
Channel positions : Front: L R
Sampling rate : 48.0 kHz
Frame rate : 46.875 FPS (1024 spf)
Compression mode : Lossy
Stream size : 159 MiB (32%)
Default : Yes

====================================================

PODOBNE TORRENTY
Zwycięzca - Race *2016* [720p] [BluRay] [x264-KiT] [ Lektor PL] Zwycięzca - Race *2016* [BDRip] [XviD-KiT] [Lektor PL] Zwycięzca - Race *2016* [BDRip] [XviD-KiT] [Lektor PL] Zwycięzca - Race *2016* [BDRip] [XviD-KiT] [Lektor PL] [dabrjarek] Zwycięzca / Race (2016) [480p] [BDRip] [XviD] [AC3-KLiO] [Lektor PL] Urodzony zwycięzca / Born To Race (2011) [DVDRip.AC3.XviD-C79TeaM] [Lektor PL]
Szczegóły torrenta
TRACKER
Tracker Podstawowy: http://tracker.filetracker.pl:8089/announce

Multitrackery:

http://tracker.filetracker.pl:8089/announce
http://pow7.com:80/announce
udp://tracker.leechers-paradise.org:6969/announce
udp://shadowshq.eddie4.nl:6969/announce
udp://tracker.opentrackr.org:1337/announce
udp://tracker.openbittorrent.com:80/announce
udp://tracker.leechers-paradise.org:6969/announce

UAKTUALNIENIE
10/02/2017 21:02:01 (Jeśeli nie widac seeda kliknij na [uaktualnij] by odswieżyć statystyki).
[Lub sprawdź programem do pobierania torrentów, ponieważ niektóre trackery nie wyświetlają statystyk]
5 pliki
 
KOMENTARZE


Brak komentarzy...

DODAJ KOMENTARZ

Zaloguj się aby dodawać komentarze !!!



Wstecz








WRÓĆ NA GÓRĘ