FileTracker.PL - Darmowe polskie torrenty

Witaj drogi Towarzyszu!, jeżeli widzisz ten dymek to znaczy że nie jesteś jeszcze zarejestrowany/zalogowany. Kliknij by się zarejestrować . Rejestracja zajmie mniej niż 30 sekund, a dzięki niej zyskasz możliwość pobierania, komentowania oraz dodawania torrentów !
User:  Hasło:     



Kategorie


Detale Torrenta


Tytani - Remember The Titans *2000* [DVDRip.x264-Złośnicaa] [Lektor PL]

S: 13L: 5P: 39
Dodał: Tracker:
Kondycja:Dodane:2017-02-07 20:52:58
Kategoria:Filmy X264 / H264  »  BiograficzneRozmiar:497.50 MB
Język:Lektor PL  Lektor PL------------------
Obserwuj:OBSERWUJ TORRENTAStaty:UAKTUALNIJ TRACKER
Download: Pobierz TorrentRaport:RAPORTUJ TORRENTA




produkcja: USA,
premiera: 23 września 2000 - Świat
gatunek: Biograficzny, Sportowy
reżyseria: Boaz Yakin
scenariusz: Gregory Allen



Miejscem akcji jest Ameryka lat 70-tych. W niewielkim miasteczku trenerem drużyny footballowej zostaje czarnoskóry mężczyzna. Nie wszystkim to się podoba, sytuacja wzbudza wiele emocji. Wybucha konflikt między zwolennikami starego porządku i przeciwnikami dyskryminacji na tle rasowym.



Denzel Washington ... Trener Herman Boone
Will Patton ... Trener Bill Yoast
Wood Harris ... Julius Campbell
Ryan Hurst ... Gerry Bertier





Video
ID : 1
Format : AVC
Format/INFO : Advanced Video Codec
Format profile : [email protected]
Format settings, CABAC : Yes
Format settings, ReFrames : 4 frames
Codec ID : avc1
Codec ID/INFO : Advanced Video Coding
Duration : 1 h 48 min
Bit rate : 464 kb/s
Width : 624 pixels
Height : 256 pixels
Display aspect ratio : 2.40:1
Frame rate mode : Constant
Frame rate : 30.000 FPS
Color space : YUV
Chroma subsampling : 4:2:0
Bit depth : 8 bits
Scan type : Progressive
Bits/(Pixel*Frame) : 0.097
Stream size : 362 MiB (73%)
Writing library : x264 core 118

Audio
ID : 2
Format : AAC
Format/INFO : Advanced Audio Codec
Format profile : LC
Codec ID : 40
Duration : 1 h 48 min
Duration_LastFrame : -5 ms
Bit rate mode : Variable
Bit rate : 165 kb/s
Maximum bit rate : 256 kb/s
Channel(s) : 2 channels
Channel positions : Front: L R
Sampling rate : 48.0 kHz
Frame rate : 46.875 FPS (1024 spf)
Compression mode : Lossy
Stream size : 129 MiB (26%)
Default : Yes

====================================================

PODOBNE TORRENTY
Tytani - Remember the Titans (2000) [DVDRip.XviD.AC3] [Lektor PL] Tytani - Remember the Titans (2000) [DVDRip.XviD] [Lektor PL] Tytani - Remember the Titans *2000* [m1080p] [BluRay] [x264] [AC3-LTN] [Lektor PL] Tytani - Remember the Titans *2000* [BRRip] [720p] [XviD] [AC3-LTN] [Lektor PL] Tytani / Remember the Titans (2000) [720p] [BDRip] [XviD.AC3] [Lektor PL] Tytani / Remember the Titans (2000) [480p] [BRRip.XviD-LTN] [AC-3] [Lektor PL]
Szczegóły torrenta
TRACKER
Tracker Podstawowy: http://tracker.filetracker.pl:8089/announce

Multitrackery:

http://tracker.filetracker.pl:8089/announce
http://pow7.com:80/announce
udp://tracker.leechers-paradise.org:6969/announce
udp://shadowshq.eddie4.nl:6969/announce
udp://tracker.opentrackr.org:1337/announce
udp://tracker.openbittorrent.com:80/announce
udp://tracker.leechers-paradise.org:6969/announce

UAKTUALNIENIE
01/11/2018 11:01:18 (Jeśeli nie widac seeda kliknij na [uaktualnij] by odswieżyć statystyki).
[Lub sprawdź programem do pobierania torrentów, ponieważ niektóre trackery nie wyświetlają statystyk]
5 pliki
 
KOMENTARZE


Brak komentarzy...

DODAJ KOMENTARZ

Zaloguj się aby dodawać komentarze !!!



Wstecz








WRÓĆ NA GÓRĘ