FileTracker.PL - Darmowe polskie torrenty

Witaj drogi Towarzyszu!, jeżeli widzisz ten dymek to znaczy że nie jesteś jeszcze zarejestrowany/zalogowany. Kliknij by się zarejestrować . Rejestracja zajmie mniej niż 30 sekund, a dzięki niej zyskasz możliwość pobierania, komentowania oraz dodawania torrentów !
User:  Hasło:     



Kategorie


Detale Torrenta


Rydwany Ognia - Chariots Of Fire *1981* [DVDRip.x264-Złośnicaa] [Lektor PL]

S: 0L: 0P: 44
Dodał: Tracker:
Kondycja:Dodane:2017-02-04 19:39:10
Kategoria:Filmy X264 / H264  »  BiograficzneRozmiar:734.64 MB
Język:Lektor PL  Lektor PL------------------
Obserwuj:OBSERWUJ TORRENTAStaty:UAKTUALNIJ TRACKER
Download: Pobierz TorrentRaport:RAPORTUJ TORRENTA




produkcja: Wielka Brytania
premiera: 30 marca 1981 - Świat
gatunek: Biograficzny, Sportowy
reżyseria: Hugh Hudson
scenariusz: Colin Welland



Prawdziwa historia dwóch brytyjskich lekkoatletów startujących na Igrzyskach Olimpijskich w 1924 r. Jeden z nich biegnie ku chwale Boga, drugi robi to dla sławy.



Ben Cross ... Harold Abrahams
Ian Charleson ... Eric Liddell
Nicholas Farrell ... Aubrey Montague
Nigel Havers ... Lord Andrew Lindsay





Video
ID : 1
Format : AVC
Format/INFO : Advanced Video Codec
Format profile : [email protected]
Format settings, CABAC : Yes
Format settings, ReFrames : 4 frames
Codec ID : avc1
Codec ID/INFO : Advanced Video Coding
Duration : 1 h 58 min
Bit rate : 692 kb/s
Width : 620 pixels
Height : 352 pixels
Display aspect ratio : 16:9
Frame rate mode : Constant
Frame rate : 30.000 FPS
Color space : YUV
Chroma subsampling : 4:2:0
Bit depth : 8 bits
Scan type : Progressive
Bits/(Pixel*Frame) : 0.106
Stream size : 587 MiB (80%)
Writing library : x264 core 118

Audio
ID : 2
Format : AAC
Format/INFO : Advanced Audio Codec
Format profile : LC
Codec ID : 40
Duration : 1 h 58 min
Duration_LastFrame : -11 ms
Bit rate mode : Variable
Bit rate : 165 kb/s
Maximum bit rate : 256 kb/s
Channel(s) : 2 channels
Channel positions : Front: L R
Sampling rate : 48.0 kHz
Frame rate : 46.875 FPS (1024 spf)
Compression mode : Lossy
Stream size : 140 MiB (19%)
Default : Yes

====================================================

PODOBNE TORRENTY
Rydwany ognia - Chariots of Fire (1981) [DVDRip.XviD.AC3] [Lektor PL] Rydwany ognia - Chariots of Fire (1981) [AC3.DVDRip] [XviD-GR4PE] [Lektor PL] Rydwany ognia - Chariots of Fire *1981* [BRRip] [AC-3] [XviD] [Lektor PL] [DYZIO] Rydwany ognia - Chariots of Fire (1981) [BRRip.XviD-GR4PE] [Lektor PL]  Pierścień Ognia - Ring Of Fire *2012* [miniserial] [HDTV.x264-Złośnicaa] [Lektor PL]  Krod Mandoon I Gorejąca Klinga Ognia - Kröd Mändoon And The Flaming Sword Of Fire *2009* [miniserial] [DVBRip.x264-Złośnicaa] [Lektor PL]
Szczegóły torrenta
TRACKER
Tracker Podstawowy: http://tracker.filetracker.pl:8089/announce

Multitrackery:

http://tracker.filetracker.pl:8089/announce
http://pow7.com:80/announce
udp://tracker.leechers-paradise.org:6969/announce
udp://shadowshq.eddie4.nl:6969/announce
udp://tracker.opentrackr.org:1337/announce
udp://tracker.openbittorrent.com:80/announce
udp://tracker.leechers-paradise.org:6969/announce

UAKTUALNIENIE
25/07/2020 18:35:48 (Jeśeli nie widac seeda kliknij na [uaktualnij] by odswieżyć statystyki).
[Lub sprawdź programem do pobierania torrentów, ponieważ niektóre trackery nie wyświetlają statystyk]
5 pliki
 
KOMENTARZE


Brak komentarzy...

DODAJ KOMENTARZ

Zaloguj się aby dodawać komentarze !!!



Wstecz








WRÓĆ NA GÓRĘ