FileTracker.PL - Darmowe polskie torrenty

Witaj drogi Towarzyszu!, jeżeli widzisz ten dymek to znaczy że nie jesteś jeszcze zarejestrowany/zalogowany. Kliknij by się zarejestrować . Rejestracja zajmie mniej niż 30 sekund, a dzięki niej zyskasz możliwość pobierania, komentowania oraz dodawania torrentów !
User:  Hasło:     



Kategorie


Detale Torrenta


Przed Metą - Without Limits *1998* [DVDRip.x264-Złośnicaa] [Lektor PL]

S: 2L: 5P: 36
Dodał: Tracker:
Kondycja:Dodane:2017-02-04 01:22:41
Kategoria:Filmy X264 / H264  »  BiograficzneRozmiar:716.09 MB
Język:Lektor PL  Lektor PL------------------
Obserwuj:OBSERWUJ TORRENTAStaty:UAKTUALNIJ TRACKER
Download: Pobierz TorrentRaport:RAPORTUJ TORRENTA




produkcja: USA
premiera: 11 września 1998 - Świat
gatunek: Biograficzny, Sportowy
reżyseria: Robert Towne
scenariusz: Robert Towne



Opowieść o życiu amerykańskiego biegacza Steve'a Prefontaine'a. Film OPISuje początek kariery tego biegacza, która zaczęła się na Oregon University, gdzie szkolił go znany trener Bill Bowerman. Obok wątku sportowego wpleciona została również historia miłości Steve'a Prefontaine'a i Mary Marx.



Billy Crudup ... Steve Prefontaine
Judith Ivey ... Barbara Bowerman
Billy Burke ... Kenny Moore
Dean Norris ... Bill Dellinger





Video
ID : 1
Format : AVC
Format/INFO : Advanced Video Codec
Format profile : [email protected]
Format settings, CABAC : Yes
Format settings, ReFrames : 4 frames
Codec ID : avc1
Codec ID/INFO : Advanced Video Coding
Duration : 1 h 53 min
Bit rate : 710 kb/s
Width : 720 pixels
Height : 480 pixels
Display aspect ratio : 3:2
Frame rate mode : Constant
Frame rate : 30.000 FPS
Color space : YUV
Chroma subsampling : 4:2:0
Bit depth : 8 bits
Scan type : Progressive
Bits/(Pixel*Frame) : 0.068
Stream size : 574 MiB (80%)
Writing library : x264 core 142

Audio
ID : 2
Format : AAC
Format/INFO : Advanced Audio Codec
Format profile : LC
Codec ID : 40
Duration : 1 h 53 min
Duration_LastFrame : -11 ms
Bit rate mode : Variable
Bit rate : 165 kb/s
Maximum bit rate : 256 kb/s
Channel(s) : 2 channels
Channel positions : Front: L R
Sampling rate : 48.0 kHz
Frame rate : 46.875 FPS (1024 spf)
Compression mode : Lossy
Stream size : 134 MiB (19%)
Default : Yes

====================================================

PODOBNE TORRENTY
Wybawca - Savior *1998* [DVDRip.x264-Złośnicaa] [Lektor PL] Pociąg Życia - Train De Vie *1998* [DVDRip.x264-Złośnicaa] [Lektor PL] Tylko Miłość - Only Love *1998* [miniserial] [DVDRip.x264-Złośnicaa] [Lektor PL]	Encyklopedia I Wojny Światowej - The Great: War World War 1 *1998* [miniserial] [DVDRip.x264-Złośnicaa] [Lektor PL]  Kroniki Braciszka Cadfaela - Cadfael *1994-1998* [Sezon 1-4] [miniserial] [DVDRip.x264-Złośnicaa] [Lektor PL]  Hrabia Monte Christo - Le Comte De Monte Cristo *1998* [miniserial] [DVDRip.x264-Złośnicaa] [Lektor PL]
Szczegóły torrenta
TRACKER
Tracker Podstawowy: http://tracker.filetracker.pl:8089/announce

Multitrackery:

http://tracker.filetracker.pl:8089/announce
http://pow7.com:80/announce
udp://tracker.leechers-paradise.org:6969/announce
udp://shadowshq.eddie4.nl:6969/announce
udp://tracker.opentrackr.org:1337/announce
udp://tracker.openbittorrent.com:80/announce
udp://tracker.leechers-paradise.org:6969/announce

UAKTUALNIENIE
07/02/2017 07:40:05 (Jeśeli nie widac seeda kliknij na [uaktualnij] by odswieżyć statystyki).
[Lub sprawdź programem do pobierania torrentów, ponieważ niektóre trackery nie wyświetlają statystyk]
5 pliki
 
KOMENTARZE


Brak komentarzy...

DODAJ KOMENTARZ

Zaloguj się aby dodawać komentarze !!!



Wstecz








WRÓĆ NA GÓRĘ