FileTracker.PL - Darmowe polskie torrenty

Witaj drogi Towarzyszu!, jeżeli widzisz ten dymek to znaczy że nie jesteś jeszcze zarejestrowany/zalogowany. Kliknij by się zarejestrować . Rejestracja zajmie mniej niż 30 sekund, a dzięki niej zyskasz możliwość pobierania, komentowania oraz dodawania torrentów !
User:  Hasło:     



Kategorie


Detale Torrenta


Moneyball *2011* [DVDRip.x264-Złośnicaa] [Lektor PL]

S: 0L: 12P: 46
Dodał: Tracker:
Kondycja:Dodane:2017-02-02 20:22:27
Kategoria:Filmy X264 / H264  »  BiograficzneRozmiar:523.18 MB
Język:Lektor PL  Lektor PL------------------
Obserwuj:OBSERWUJ TORRENTAStaty:UAKTUALNIJ TRACKER
Download: Pobierz TorrentRaport:RAPORTUJ TORRENTA




produkcja: USA
premiera: 9 września 2011 - Świat
gatunek: Biograficzny, Sportowy
reżyseria: Bennett Miller
scenariusz: Aaron Sorkin



Historia managera klubu baseballowego Oakland Athletics Billy’ego Beane’a, który postanowił wykorzystać w swojej pracy analizy komputerowe. Dzięki temu, jego drużyna ma lepsze wyniki i może zmagać się z lepszymi zespołami, mimo złej sytuacji finansowej.



Brad Pitt ... Billy Beane
Jonah Hill ... Peter Brand
Philip Seymour Hoffman ... Art Howe
Robin Wright ... Sharon






Video
ID : 1
Format : AVC
Format/INFO : Advanced Video Codec
Format profile : [email protected]
Format settings, CABAC : Yes
Format settings, ReFrames : 4 frames
Codec ID : avc1
Codec ID/INFO : Advanced Video Coding
Duration : 2 h 13 min
Bit rate : 373 kb/s
Width : 608 pixels
Height : 336 pixels
Display aspect ratio : 16:9
Frame rate mode : Constant
Frame rate : 30.000 FPS
Color space : YUV
Chroma subsampling : 4:2:0
Bit depth : 8 bits
Scan type : Progressive
Bits/(Pixel*Frame) : 0.061
Stream size : 356 MiB (68%)
Writing library : x264 core 118

Audio
ID : 2
Format : AAC
Format/INFO : Advanced Audio Codec
Format profile : LC
Codec ID : 40
Duration : 2 h 13 min
Bit rate mode : Variable
Bit rate : 165 kb/s
Maximum bit rate : 256 kb/s
Channel(s) : 2 channels
Channel positions : Front: L R
Sampling rate : 48.0 kHz
Frame rate : 46.875 FPS (1024 spf)
Compression mode : Lossy
Stream size : 157 MiB (30%)
Default : Yes

====================================================

PODOBNE TORRENTY
Moneyball  (2011) [DVDRip.[XviD] [Lektor PL] Moneyball (2011) [m1080p] [BluRay.x264-LTN] [AC-3] [Lektor PL] Moneyball (2011) [Blu-Ray EUR] [1080p] [Lektor i Napisy PL] Moneyball (2011) [480p] [Xvid-Kuras] [AC-3] [Lektor PL] Apollo 18 *2011* [DVDRip.x264-Złośnicaa] [Lektor PL] Atlantis Down *2011* [DVDRip.x264-Złośnicaa] [Lektor PL]
Szczegóły torrenta
TRACKER
Tracker Podstawowy: http://tracker.filetracker.pl:8089/announce

Multitrackery:

http://tracker.filetracker.pl:8089/announce
http://pow7.com:80/announce
udp://tracker.leechers-paradise.org:6969/announce
udp://shadowshq.eddie4.nl:6969/announce
udp://tracker.opentrackr.org:1337/announce
udp://tracker.openbittorrent.com:80/announce
udp://tracker.leechers-paradise.org:6969/announce

UAKTUALNIENIE
07/08/2019 15:04:35 (Jeśeli nie widac seeda kliknij na [uaktualnij] by odswieżyć statystyki).
[Lub sprawdź programem do pobierania torrentów, ponieważ niektóre trackery nie wyświetlają statystyk]
5 pliki
 
KOMENTARZE


Brak komentarzy...

DODAJ KOMENTARZ

Zaloguj się aby dodawać komentarze !!!



Wstecz








WRÓĆ NA GÓRĘ