FileTracker.PL - Darmowe polskie torrenty

Witaj drogi Towarzyszu!, jeżeli widzisz ten dymek to znaczy że nie jesteś jeszcze zarejestrowany/zalogowany. Kliknij by się zarejestrować . Rejestracja zajmie mniej niż 30 sekund, a dzięki niej zyskasz możliwość pobierania, komentowania oraz dodawania torrentów !
User:  Hasło:     



Kategorie


Detale Torrenta


Mała Królowa - The Little Queen *2014* [DVDRip.x264-Złośnicaa] [Lektor PL]

S: 7L: 7P: 38
Dodał: Tracker:
Kondycja:Dodane:2017-02-02 20:18:11
Kategoria:Filmy X264 / H264  »  BiograficzneRozmiar:527.15 MB
Język:Lektor PL  Lektor PL------------------
Obserwuj:OBSERWUJ TORRENTAStaty:UAKTUALNIJ TRACKER
Download: Pobierz TorrentRaport:RAPORTUJ TORRENTA




produkcja: Kanada
premiera: 13 czerwca 2014 - Świat
gatunek: Biograficzny, Sportowy
reżyseria: Alexis Durand-Brault
scenariusz: Sophie Lorain



Julie, wschodząca gwiazda kanadyjskiego kolarstwa, stosuje środki dopingujące. Gdy jej lekarz ujawnia to mediom, dziewczyna próbuje oczyścić swoje imię.



Laurence Leboeuf ... Julie Arseneau
Patrice Robitaille ... JP
Sébastien Delorme ... François Bouchard
Denis Bouchard ... lain Arseneau





Video
ID : 1
Format : AVC
Format/INFO : Advanced Video Codec
Format profile : [email protected]
Format settings, CABAC : Yes
Format settings, ReFrames : 4 frames
Codec ID : avc1
Codec ID/INFO : Advanced Video Coding
Duration : 1 h 48 min
Bit rate : 504 kb/s
Width : 640 pixels
Height : 352 pixels
Display aspect ratio : 16:9
Frame rate mode : Constant
Frame rate : 30.000 FPS
Color space : YUV
Chroma subsampling : 4:2:0
Bit depth : 8 bits
Scan type : Progressive
Bits/(Pixel*Frame) : 0.075
Stream size : 392 MiB (74%)
Writing library : x264 core 142

Audio
ID : 2
Format : AAC
Format/INFO : Advanced Audio Codec
Format profile : LC
Codec ID : 40
Duration : 1 h 48 min
Duration_LastFrame : -8 ms
Bit rate mode : Variable
Bit rate : 165 kb/s
Maximum bit rate : 256 kb/s
Channel(s) : 2 channels
Channel positions : Front: L R
Sampling rate : 48.0 kHz
Frame rate : 46.875 FPS (1024 spf)
Compression mode : Lossy
Stream size : 128 MiB (24%)
Default : Yes

====================================================

PODOBNE TORRENTY
Królowa Śniegu 2 - The Snow Queen 2 *2014* [DVDRip.x264-Złośnicaa] [Dubbing PL] Sędzia Goodnight: Królowa Kier - Goodnight For Justice: Queen Of Hearts *2013* [DVDRip.x264-Złośnicaa] [Lektor PL]  Królowa Dziewica - The Virgin Queen *2005* [miniserial] [DVBRip.x264-Złośnicaa] [Lektor PL]  Królowa Miecza - Queen Of Swords *2000* [miniserial] [DVBRip.x264-Złośnicaa] [Lektor PL] Biała Królowa - The White Queen *2013* [miniserial] [480p.BRRip.x264-Złośnicaa] [Lektor PL] Mała Księżniczka - The Little Princess *1939* [Kolor] [DVDRip.x264-Złośnicaa] [Lektor PL]
Szczegóły torrenta
TRACKER
Tracker Podstawowy: http://tracker.filetracker.pl:8089/announce

Multitrackery:

http://tracker.filetracker.pl:8089/announce
http://pow7.com:80/announce
udp://tracker.leechers-paradise.org:6969/announce
udp://shadowshq.eddie4.nl:6969/announce
udp://tracker.opentrackr.org:1337/announce
udp://tracker.openbittorrent.com:80/announce
udp://tracker.leechers-paradise.org:6969/announce

UAKTUALNIENIE
03/02/2017 20:49:23 (Jeśeli nie widac seeda kliknij na [uaktualnij] by odswieżyć statystyki).
[Lub sprawdź programem do pobierania torrentów, ponieważ niektóre trackery nie wyświetlają statystyk]
5 pliki
 
KOMENTARZE


Brak komentarzy...

DODAJ KOMENTARZ

Zaloguj się aby dodawać komentarze !!!



Wstecz








WRÓĆ NA GÓRĘ